Torrent Search | Torrent Meta Search | Widgets

Lexi Belle Versus The Sybian

501.65 Mb
found 2 years ago
▲ seeders: 1 ▼ leechers:0
your vote:
real:
fake:
Direct Download
THANK YOU
download torrent
  Direct Downloadsponsored

Lexi Belle Versus The Sybian torrent

Information about the torrent Lexi Belle Versus The Sybian. Seeders, leechers and torrent status is updated everyday.

If you want to download the video torrent Lexi Belle Versus The Sybian you will need a torrent client.

Torrent Metasearch.

tracker
seeders
leechers
↓ torrent client compatible list

↑ hide torrent client compatible list

Help torrentproject.com to stay alive .
Add links of torrentproject.com in your favorite forum, blog, youtube, facebook, twitter etc.
reviews
140
torrent contents

Lexi Belle Versus The Sybian torrent

Lexi Belle Versus The Sybian
Lexi Belle_Four Finger Club 24_Scene 5 with Kristina Rose.wmv412.04 Mb torrent search
Lexi Belle Sybian Ride 2 - aziani.com.mp429.02 Mb torrent search
Lexi Belle Sybian Ride - aziani.com.mp429.22 Mb torrent search
Lexi Belle Smokin' Sybian - aziani.com.mp431.37 Mb torrent search

Sample info:
Duration: 00:40:04.10, start: 5.000000, bitrate: 1437 kb/s
Stream #0.0(eng): Audio: wmav2, 44100 Hz, 1 channels, s16, 32 kb/s
Stream #0.1(eng): Video: wmv3, yuv420p, 640x480, 1400 kb/s, 29.97 tbr, 1k tbn, 1k tbc
screenshots
Lexi Belle Versus The torrent screenshot 80940889569EE26EA207FC3325D9BF598E03236E Lexi Belle Versus The  torrent screenshot 80940889569ee26ea207fc3325d9bf598e03236e torrent Lexi Belle Versus The
Lexi Belle Versus The Sybian images are auto generated please report any inapropriate images
 

related search cloud

 belle  lexi  sybian  aziani  ride  rose  smokin  kristina  club  versus