Torrent Search | Torrent Meta Search | Widgets

2 Hot Japanese Sisters

       
345.1 Mb
found 3 years ago
▲ seeders: 7 ▼ leechers:4
your vote:
real:
fake:
Direct Download
THANK YOU
download torrent
  Direct Downloadsponsored

2 Hot Japanese Sisters torrent

Information about the torrent 2 Hot Japanese Sisters. Seeders, leechers and torrent status is updated several times per day.

If you want to download the video torrent 2 Hot Japanese Sisters you will need a torrent client.

Torrent Metasearch.

.

tracker
seeders
leechers
↓ torrent client compatible list

↑ hide torrent client compatible list

Help torrentproject.com to stay alive .
Add links of torrentproject.com in your favorite forum, blog, youtube, facebook, twitter etc.
reviews
140
torrent contents

2 Hot Japanese Sisters.avi torrent

2 Hot Japanese Sisters.avi345.1 Mb torrent search

Sample info:
Duration: 00:45:09.47, start: 0.000000, bitrate: 1068 kb/s
Stream #0.0: Video: mpeg4, yuv420p, 720x480 [PAR 1:1 DAR 3:2], 29.97 fps, 29.97 tbr, 29.97 tbn, 29.97 tbc
Stream #0.1: Audio: mp3, 44100 Hz, 2 channels, s16, 192 kb/s
title	: Audio Stream
screenshots
2 Hot Japanese Sisters torrent screenshot 813B732C465DDCA2BB021539DE9D2FF44F7560F3 2 Hot Japanese Sisters torrent screenshot 813b732c465ddca2bb021539de9d2ff44f7560f3 torrent 2 Hot Japanese Sisters
2 Hot Japanese Sisters.avi images are auto generated please report any inapropriate images
 

related search cloud

 sisters  japanese