Torrent Search | Torrent Meta Search | Widgets

SellYourGF Inna aka Angel Angel C Ekaterina D Foxi Di 720p

557.19 Mb
found 10 months ago
▲ seeders: 8 ▼ leechers:4
your vote:
real:
fake:
Direct Download
THANK YOU
download torrent
  Direct Downloadsponsored

SellYourGF Inna aka Angel Angel C Ekaterina D Foxi Di 720p torrent

Information about the torrent SellYourGF Inna aka Angel Angel C Ekaterina D Foxi Di 720p. Seeders, leechers and torrent status is updated several times per day.

If you want to download the hdrip torrent SellYourGF Inna aka Angel Angel C Ekaterina D Foxi Di 720p you will need a torrent client.

Torrent Metasearch.

tracker
seeders
leechers
↓ torrent client compatible list

↑ hide torrent client compatible list

Help torrentproject.com to stay alive .
Add links of torrentproject.com in your favorite forum, blog, youtube, facebook, twitter etc.
reviews
140
torrent contents

SellYourGF - Inna aka Angel, Angel C, Ekaterina D, Foxi Di [720p].mp4 torrent

SellYourGF - Inna aka Angel, Angel C, Ekaterina D, Foxi Di [720p].mp4557.19 Mb torrent search

Sample info:
Duration: 00:20:38.80, start: 0.000000, bitrate: 3773 kb/s
Stream #0:0(rus): Video: h264 (High) (avc1 / 0x31637661), yuv420p, 1280x720, 3658 kb/s, 25 fps, 25 tbr, 25 tbn, 50 tbc
creation_time	: 1970-01-01 00:00:00
handler_name	: VideoHandler
Stream #0:1(rus): Audio: aac (mp4a / 0x6134706D), 44100 Hz, stereo, s16, 109 kb/s
creation_time	: 1970-01-01 00:00:00
handler_name	: SoundHandler
screenshots
SellYourGF Inna aka Angel torrent screenshot 81B73BECF29F19F9C7E945F399E874A9FFE9834B SellYourGF Inna aka Angel  torrent screenshot 81b73becf29f19f9c7e945f399e874a9ffe9834b torrent SellYourGF Inna aka Angel
SellYourGF - Inna aka Angel, Angel C, Ekaterina D, Foxi Di [720p].mp4 images are auto generated please report any inapropriate images
 

related search cloud

 angel  foxi  ekaterina  sellyourgf  inna

Torrent Anonymous Download