Torrent Search | Torrent Meta Search | Widgets

La semilla del diablo (1968) DVDRip Spanish

704.35 Mb
found 1 year ago
▲ seeders: 9 ▼ leechers:0
your vote:
real:
fake:
Direct Download
THANK YOU
download torrent
  Direct Downloadsponsored

La semilla del diablo (1968) DVDRip Spanish torrent

Information about the torrent La semilla del diablo (1968) DVDRip Spanish. Seeders, leechers and torrent status is updated everyday.

If you want to download the dvdrip torrent La semilla del diablo (1968) DVDRip Spanish you will need a torrent client.

Torrent Metasearch.

tracker
seeders
leechers
↓ torrent client compatible list

↑ hide torrent client compatible list

Help torrentproject.com to stay alive .
Add links of torrentproject.com in your favorite forum, blog, youtube, facebook, twitter etc.
reviews
140
torrent contents

La semilla del diablo (1968) [DVDRIP][Spanish][www.bricocine.com].avi torrent

La semilla del diablo (1968) [DVDRIP][Spanish][www.bricocine.com].avi704.35 Mb torrent search

Sample info:
Duration: 02:11:06.48, start: 0.000000, bitrate: 751 kb/s
Stream #0.0: Video: mpeg4, yuv420p, 624x352 [PAR 1:1 DAR 39:22], 25 fps, 25 tbr, 25 tbn, 30k tbc
Stream #0.1: Audio: mp3, 44100 Hz, stereo, s16, 111 kb/s
screenshots
La semilla del diablo torrent screenshot 81CC316F5B41329777C0D2FC17AF2BB1B2C4606F La semilla del diablo  torrent screenshot 81cc316f5b41329777c0d2fc17af2bb1b2c4606f torrent La semilla del diablo
La semilla del diablo (1968) [DVDRIP][Spanish][www.bricocine.com].avi images are auto generated please report any inapropriate images
 

related search cloud

 bricocine  spanish  dvdrip  diablo  semilla

Torrent Anonymous Download