Torrent Search | Torrent Meta Search | Widgets

Hunter x Hunter

       
5.94 Gb
found 2 years ago
▲ seeders: 9 ▼ leechers:6
your vote:
real:
fake:
Direct Download
THANK YOU
download torrent
  Direct Downloadsponsored

Hunter x Hunter torrent

Information about the torrent Hunter x Hunter. Seeders, leechers and torrent status is updated several times per day.

If you want to download the video torrent Hunter x Hunter you will need a torrent client.

Torrent Metasearch.

Torrent verified by kat.ph.

No trackers with seeders or leechers have been found, this doesn't mean that the torrent Hunter x Hunter is dead
Help torrentproject.com to stay alive .
Add links of torrentproject.com in your favorite forum, blog, youtube, facebook, twitter etc.
reviews
140
torrent contents

Hunter x Hunter torrent

Hunter x Hunter
 Hunter x HUnter OVa
ova 05.mkv100.51 Mb torrent search
ova 07.mkv96.66 Mb torrent search
ova 02.mkv91.42 Mb torrent search

Hunter x Hunter
 Hunter x Hunter 1-62
Hunter x hunter 62.mkv69.68 Mb torrent search
Hunter x hunter 16.mkv68.66 Mb torrent search
Hunter x hunter 05.mkv68.66 Mb torrent search
Hunter x hunter 10.mkv68.56 Mb torrent search
Hunter x hunter 06.mkv68.56 Mb torrent search
Hunter x hunter 18.mkv68.55 Mb torrent search
Hunter x hunter 04.mkv68.51 Mb torrent search
Hunter x hunter 33.mkv68.49 Mb torrent search
Hunter x hunter 08.mkv68.4 Mb torrent search
Hunter x hunter 45.mkv68.37 Mb torrent search
Hunter x hunter 09.mkv68.32 Mb torrent search
Hunter x hunter 11.mkv68.32 Mb torrent search
Hunter x hunter 60.mkv68.26 Mb torrent search
Hunter x hunter 17.mkv68.26 Mb torrent search
Hunter x hunter 38.mkv68.25 Mb torrent search
Hunter x hunter 12.mkv68.24 Mb torrent search
Hunter x hunter 07.mkv68.2 Mb torrent search
Hunter x hunter 54.mkv68.18 Mb torrent search
Hunter x hunter 51.mkv68.16 Mb torrent search
Hunter x hunter 29.mkv68.16 Mb torrent search
Hunter x hunter 01.mkv68.14 Mb torrent search
Hunter x hunter 13.mkv68.14 Mb torrent search
Hunter x hunter 52.mkv68.12 Mb torrent search
Hunter x hunter 56.mkv68.1 Mb torrent search
Hunter x hunter 35.mkv68.09 Mb torrent search
Hunter x hunter 32.mkv68.09 Mb torrent search
Hunter x hunter 50.mkv68.07 Mb torrent search
Hunter x hunter 48.mkv68.07 Mb torrent search
Hunter x hunter 58.mkv68.06 Mb torrent search
Hunter x hunter 02.mkv68.03 Mb torrent search
Hunter x hunter 57.mkv68 Mb torrent search
Hunter x hunter 41.mkv67.95 Mb torrent search
Hunter x hunter 14.mkv67.91 Mb torrent search
Hunter x hunter 15.mkv67.91 Mb torrent search
Hunter x hunter 19.mkv67.89 Mb torrent search

Sample info:
Duration: 00:23:05.96, start: 0.000000, bitrate: N/A
Stream #0.0(eng): Video: h264, yuv420p, 640x480 [PAR 1:1 DAR 4:3], 23.98 fps, 23.98 tbr, 1k tbn, 180k tbc
Stream #0.1: Audio: aac, 48000 Hz, stereo, s16
screenshots
Hunter x Hunter torrent screenshot 81D52D5D5B0B686DE087422973042224663AD4A7 Hunter x Hunter torrent screenshot 81d52d5d5b0b686de087422973042224663ad4a7 torrent Hunter x Hunter
Hunter x Hunter images are auto generated please report any inapropriate images
 

related search cloud

 hunter