Torrent Search | Torrent Meta Search | Widgets

Nadia Nyce Deep Inside Dirty Debutantes Indian Porn

       
437.53 Mb
found 4 years ago
▲ seeders: 2 ▼ leechers:1
your vote:
real:
fake:
Direct Download
THANK YOU
download torrent
  Direct Downloadsponsored

Nadia Nyce Deep Inside Dirty Debutantes Indian Porn torrent

Information about the torrent Nadia Nyce Deep Inside Dirty Debutantes Indian Porn. Seeders, leechers and torrent status is updated several times per day.

If you want to download the video torrent Nadia Nyce Deep Inside Dirty Debutantes Indian Porn you will need a torrent client.

Torrent Metasearch.

Torrent verified by torlock.com.

tracker
seeders
leechers
↓ torrent client compatible list

↑ hide torrent client compatible list

Help torrentproject.com to stay alive .
Add links of torrentproject.com in your favorite forum, blog, youtube, facebook, twitter etc.
reviews
140
torrent contents

Nadia Nyce - Deep Inside Dirty Debutantes {Indian Porn} torrent

Nadia Nyce - Deep Inside Dirty Debutantes {Indian Porn}
OUYFOUY-876354.mpg437.53 Mb torrent search

Sample info:
Duration: 00:32:59.00, start: 0.213333, bitrate: 1854 kb/s
Stream #0.0[0x1e0]: Video: mpeg1video, yuv420p, 320x240 [PAR 1:1 DAR 4:3], 1856 kb/s, 30 fps, 30 tbr, 90k tbn, 30 tbc
Stream #0.1[0x1c0]: Audio: mp2, 44100 Hz, stereo, s16, 128 kb/s
screenshots
Nadia Nyce Deep Inside torrent screenshot 8373FD3A731C35AA5A074BA4DD60160D71BCC437 Nadia Nyce Deep Inside  torrent screenshot 8373fd3a731c35aa5a074ba4dd60160d71bcc437 torrent Nadia Nyce Deep Inside
Nadia Nyce - Deep Inside Dirty Debutantes {Indian Porn} images are auto generated please report any inapropriate images
 

related search cloud

 indian  porn  ouyfouy  debutantes  dirty  nyce  deep  inside  nadia