Torrent Search | Torrent Meta Search | Widgets

Rescue Me Season Four

4.44 Gb
found 4 years ago
▲ seeders: 7 ▼ leechers:4
your vote:
real:
fake:
Direct Download
THANK YOU
download torrent
  Direct Downloadsponsored

Rescue Me Season Four torrent

Information about the torrent Rescue Me Season Four. Seeders, leechers and torrent status is updated several times per day.

If you want to download the tv torrent Rescue Me Season Four you will need a torrent client.

Torrent Metasearch.

tracker
seeders
leechers
↓ torrent client compatible list

↑ hide torrent client compatible list

Help torrentproject.com to stay alive .
Add links of torrentproject.com in your favorite forum, blog, youtube, facebook, twitter etc.
reviews
140
torrent contents

Rescue Me - Season Four torrent

Rescue Me - Season Four
Rescue Me S04E01 (Babyface).avi350.75 Mb torrent search
Rescue Me S04E02 (Tuesday).avi349.7 Mb torrent search
Rescue Me S04E03 (Commitment).avi349.74 Mb torrent search
Rescue Me S04E04 (Pussified).avi350.3 Mb torrent search
Rescue Me S04E05 (Black).avi348.68 Mb torrent search
Rescue Me S04E06 (Balance).avi349.89 Mb torrent search
Rescue Me S04E09 (Animal).avi349.96 Mb torrent search
Rescue Me S04E07 (Seven).avi350.79 Mb torrent search
Rescue Me S04E08 (Solo).avi350.16 Mb torrent search
Rescue Me S04E10 (High).avi350.03 Mb torrent search
Rescue Me S04E11 (Cycle).avi350.74 Mb torrent search
Rescue Me S04E12 (Keefe).avi351.31 Mb torrent search
Rescue Me S04E13 (Yaz).avi349.47 Mb torrent search

Sample info:
Duration: 00:43:17.67, start: 0.000000, bitrate: 1134 kb/s
Stream #0.0: Video: mpeg4, yuv420p, 624x352 [PAR 1:1 DAR 39:22], 23.98 tb(r)
Stream #0.1: Audio: mp3, 48000 Hz, stereo, 128 kb/s
screenshots
Rescue Me Season Four torrent screenshot 83BE9BEE37D885DDE9D63CDD00A6736F9D887863 Rescue Me Season Four torrent screenshot 83be9bee37d885dde9d63cdd00a6736f9d887863 torrent Rescue Me Season Four
Rescue Me - Season Four images are auto generated please report any inapropriate images
 

related search cloud

 rescue  seven  animal  solo  high  keefe  cycle  balance  black  four