Torrent Search | Torrent Meta Search | Widgets

Sezon Na Misia 3

698.25 Mb
found 3 years ago
▲ seeders: 1 ▼ leechers:0
your vote:
real:
fake:
Direct Download
THANK YOU
download torrent
  Direct Downloadsponsored

Sezon Na Misia 3 torrent

Information about the torrent Sezon Na Misia 3. Seeders, leechers and torrent status is updated several times per day.

If you want to download the video torrent Sezon Na Misia 3 you will need a torrent client.

Torrent Metasearch.

No trackers with seeders or leechers have been found, this doesn't mean that the torrent Sezon Na Misia 3 is dead
Help torrentproject.com to stay alive .
Add links of torrentproject.com in your favorite forum, blog, youtube, facebook, twitter etc.
reviews
140
torrent contents

Sezon Na Misia 3 torrent

Sezon Na Misia 3
Sezon Na Misia 3.avi698.25 Mb torrent search
Wiecej Torrentow.url116 bytes torrent search
Wiecej Filmow.url116 bytes torrent search
Pobrano z www.polskie-torrenty.pl.txt34 bytes torrent search

Sample info:
Duration: 01:14:35.89, start: 0.000000, bitrate: 1308 kb/s
Stream #0.0: Video: mpeg4, yuv420p, 640x352 [PAR 1:1 DAR 20:11], 23.98 tb(r)
Stream #0.1: Audio: mp3, 44100 Hz, stereo, 128 kb/s
screenshots
Sezon Na Misia 3 torrent screenshot 84DFE670856E819E4A2C43FFDA69925DCCD5E80A Sezon Na Misia 3 torrent screenshot 84dfe670856e819e4a2c43ffda69925dccd5e80a torrent Sezon Na Misia 3
Sezon Na Misia 3 images are auto generated please report any inapropriate images
 

related search cloud

 sezon  wiecej  misia  torrenty  polskie  torrentow  filmow  pobrano

Torrent Anonymous Download