Torrent Search | Torrent Meta Search | Widgets

Jodiwest Mother Needs Reassurance HD 720p

376.86 Mb
found 1 year ago
▲ seeders: 13 ▼ leechers:4
your vote:
real:
fake:
Direct Download
THANK YOU
download torrent
  Direct Downloadsponsored

Jodiwest Mother Needs Reassurance HD 720p torrent

Information about the torrent Jodiwest Mother Needs Reassurance HD 720p. Seeders, leechers and torrent status is updated several times per day.

If you want to download the hdrip torrent Jodiwest Mother Needs Reassurance HD 720p you will need a torrent client.

Torrent Metasearch.

tracker
seeders
leechers
↓ torrent client compatible list

↑ hide torrent client compatible list

Help torrentproject.com to stay alive .
Add links of torrentproject.com in your favorite forum, blog, youtube, facebook, twitter etc.
reviews
140
torrent contents

Jodiwest - Mother Needs Reassurance HD 720p torrent

Jodiwest - Mother Needs Reassurance HD 720p
Jodi West - Mother needs reassurance.wmv376.86 Mb torrent search

Sample info:
Duration: 00:10:31.38, start: 0.000000, bitrate: 5006 kb/s
Stream #0.0(eng): Audio: wmav2, 48000 Hz, 2 channels, s16, 192 kb/s
Stream #0.1(eng): Video: wmv3 (Main), yuv420p, 1280x720, 4840 kb/s, 23.98 tbr, 1k tbn, 1k tbc
screenshots
Jodiwest Mother Needs Reassurance torrent screenshot 8576F9DB965FC62411E6D28232AA96D60207D26B Jodiwest Mother Needs Reassurance  torrent screenshot 8576f9db965fc62411e6d28232aa96d60207d26b torrent Jodiwest Mother Needs Reassurance
Jodiwest - Mother Needs Reassurance HD 720p images are auto generated please report any inapropriate images
 

related search cloud

 reaurance  needs  mother  west  jodi  jodiwest

Torrent Anonymous Download