Torrent Search | Torrent Meta Search | Widgets

Romeo e Giulietta Zeffirelli

       
1.5 Gb
found 4 years ago
▲ seeders: 6 ▼ leechers:1
your vote:
real:
fake:
Direct Download
THANK YOU
download torrent
  Direct Downloadsponsored

Romeo e Giulietta Zeffirelli torrent

Information about the torrent Romeo e Giulietta Zeffirelli. Seeders, leechers and torrent status is updated several times per day.

If you want to download the video torrent Romeo e Giulietta Zeffirelli you will need a torrent client.

Torrent Metasearch.

.

tracker
seeders
leechers
↓ torrent client compatible list

↑ hide torrent client compatible list

Help torrentproject.com to stay alive .
Add links of torrentproject.com in your favorite forum, blog, youtube, facebook, twitter etc.
reviews
140
torrent contents

Romeo e Giulietta - Zeffirelli.avi torrent

Romeo e Giulietta - Zeffirelli.avi1.5 Gb torrent search

Sample info:
Duration: 02:12:33.00, start: 0.000000, bitrate: 1619 kb/s
Stream #0.0: Video: mpeg4, yuv420p, 608x352 [PAR 1:1 DAR 19:11], 25 fps, 25 tbr, 25 tbn, 30k tbc
Stream #0.1: Audio: ac3, 48000 Hz, stereo, s16, 192 kb/s
screenshots
Romeo e Giulietta Zeffirelli torrent screenshot 86B32B803D0CD1AF59DC3963D86E10ADD9BDF73E Romeo e Giulietta Zeffirelli torrent screenshot 86b32b803d0cd1af59dc3963d86e10add9bdf73e torrent Romeo e Giulietta Zeffirelli
Romeo e Giulietta - Zeffirelli.avi images are auto generated please report any inapropriate images
 

related search cloud

 zeffirelli  giulietta  romeo