Torrent Search | Torrent Meta Search | Widgets

Zoe Holloway Zoe Holloway Squirts And Takes It In The Ass (2010) HD 720p

       
889.99 Mb
found 3 years ago
▲ seeders: 3 ▼ leechers:1
your vote:
real:
fake:
Direct Download
THANK YOU
download torrent
  Direct Downloadsponsored

Zoe Holloway Zoe Holloway Squirts And Takes It In The Ass (2010) HD 720p torrent

Information about the torrent Zoe Holloway Zoe Holloway Squirts And Takes It In The Ass (2010) HD 720p. Seeders, leechers and torrent status is updated everyday.

If you want to download the hdrip torrent Zoe Holloway Zoe Holloway Squirts And Takes It In The Ass (2010) HD 720p you will need a torrent client.

Torrent Metasearch.

Torrent verified by kat.ph.

tracker
seeders
leechers
↓ torrent client compatible list

↑ hide torrent client compatible list

Help torrentproject.com to stay alive .
Add links of torrentproject.com in your favorite forum, blog, youtube, facebook, twitter etc.
reviews
140
torrent contents

Zoe.Holloway.Zoe.Holloway.Squirts.And.Takes.It.In.The.Ass.2010.HD.720p.mp4 torrent

Zoe.Holloway.Zoe.Holloway.Squirts.And.Takes.It.In.The.Ass.2010.HD.720p.mp4889.99 Mb torrent search

Sample info:
Duration: 00:33:53.70, start: 0.000000, bitrate: 3671 kb/s
Stream #0.0(eng): Video: h264, yuv420p, 1280x720, 3596 kb/s, 29.97 fps, 29.97 tbr, 2997 tbn, 50 tbc
creation_time	: 1970-01-01 00:00:00
Stream #0.1(eng): Audio: aac, 44100 Hz, stereo, s16, 68 kb/s
creation_time	: 1970-01-01 00:00:00
screenshots
Zoe Holloway Zoe Holloway torrent screenshot 87170B5F8781DE11BC4A7EDF15B5E695BEB7136C Zoe Holloway Zoe Holloway  torrent screenshot 87170b5f8781de11bc4a7edf15b5e695beb7136c torrent Zoe Holloway Zoe Holloway
Zoe.Holloway.Zoe.Holloway.Squirts.And.Takes.It.In.The.Ass.2010.HD.720p.mp4 images are auto generated please report any inapropriate images
 

related search cloud

 holloway  takes  squirts