Torrent Search | Torrent Meta Search | Widgets

The World At War (1973) 720p Blu ray DD5 1 x264 CtrlHD

       
62.09 Gb
found 2 years ago
▲ seeders: 22 ▼ leechers:26
your vote:
real:
fake:
Direct Download
THANK YOU
download torrent
  Direct Downloadsponsored

The World At War (1973) 720p Blu ray DD5 1 x264 CtrlHD torrent

Information about the torrent The World At War (1973) 720p Blu ray DD5 1 x264 CtrlHD. Seeders, leechers and torrent status is updated several times per day.

If you want to download the tv torrent The World At War (1973) 720p Blu ray DD5 1 x264 CtrlHD you will need a torrent client.

Torrent Metasearch.

Torrent verified by kat.ph.

tracker
seeders
leechers
↓ torrent client compatible list

↑ hide torrent client compatible list

Help torrentproject.com to stay alive .
Add links of torrentproject.com in your favorite forum, blog, youtube, facebook, twitter etc.
reviews
140
torrent contents

The.World.At.War.1973.720p.Blu-ray.DD5.1.x264-CtrlHD torrent

The.World.At.War.1973.720p.Blu-ray.DD5.1.x264-CtrlHD
The.World.At.War.1973.720p.Blu-ray.DD5.1.x264-CtrlHD.nfo1.3 Kb torrent search
The.World.At.War.1973.S01E01.720p.Blu-ray.DD5.1.x264-CtrlHD.mkv2.79 Gb torrent search
The.World.At.War.1973.S01E02.720p.Blu-ray.DD5.1.x264-CtrlHD.mkv3.12 Gb torrent search
The.World.At.War.1973.S01E03.720p.Blu-ray.DD5.1.x264-CtrlHD.mkv3.13 Gb torrent search
The.World.At.War.1973.S01E04.720p.Blu-ray.DD5.1.x264-CtrlHD.mkv2.14 Gb torrent search
The.World.At.War.1973.S01E05.720p.Blu-ray.DD5.1.x264-CtrlHD.mkv2.39 Gb torrent search
The.World.At.War.1973.S01E06.720p.Blu-ray.DD5.1.x264-CtrlHD.mkv2.21 Gb torrent search
The.World.At.War.1973.S01E07.720p.Blu-ray.DD5.1.x264-CtrlHD.mkv2.23 Gb torrent search
The.World.At.War.1973.S01E08.720p.Blu-ray.DD5.1.x264-CtrlHD.mkv2.34 Gb torrent search
The.World.At.War.1973.S01E09.720p.Blu-ray.DD5.1.x264-CtrlHD.mkv2.19 Gb torrent search
The.World.At.War.1973.S01E10.720p.Blu-ray.DD5.1.x264-CtrlHD.mkv2.18 Gb torrent search
The.World.At.War.1973.S01E11.720p.Blu-ray.DD5.1.x264-CtrlHD.mkv2.73 Gb torrent search
The.World.At.War.1973.S01E12.720p.Blu-ray.DD5.1.x264-CtrlHD.mkv2.23 Gb torrent search
The.World.At.War.1973.S01E13.720p.Blu-ray.DD5.1.x264-CtrlHD.mkv2.46 Gb torrent search
The.World.At.War.1973.S01E14.720p.Blu-ray.DD5.1.x264-CtrlHD.mkv2.3 Gb torrent search
The.World.At.War.1973.S01E15.720p.Blu-ray.DD5.1.x264-CtrlHD.mkv2.05 Gb torrent search
The.World.At.War.1973.S01E16.720p.Blu-ray.DD5.1.x264-CtrlHD.mkv2.39 Gb torrent search
The.World.At.War.1973.S01E17.720p.Blu-ray.DD5.1.x264-CtrlHD.mkv2.64 Gb torrent search

Sample info:
Duration: 00:54:45.63, start: 0.000000, bitrate: 448 kb/s
Stream #0.0(eng): Video: h264 (High), yuv420p, 1280x720 [PAR 1:1 DAR 16:9], 23.98 fps, 23.98 tbr, 1k tbn, 47.95 tbc (default)
title	: x264 crf 21
Stream #0.1(eng): Audio: ac3, 48000 Hz, 5.1, s16, 448 kb/s (default)
title	: AC3 @ 448 kbps
Stream #0.2(eng): Subtitle: pgssub (default)
title	: English subs
screenshots
The World At War torrent screenshot 89DB38AD8AA4ACAA0A72D9D7673DB6943022390B The World At War  torrent screenshot 89db38ad8aa4acaa0a72d9d7673db6943022390b torrent The World At War
The.World.At.War.1973.720p.Blu-ray.DD5.1.x264-CtrlHD images are auto generated please report any inapropriate images
 

related search cloud

 ctrlhd  world

Torrent Anonymous Download