Torrent Search | Torrent Meta Search | Widgets

Prometheus (2012) 1080p

1.8 Gb
found 2 years ago
▲ seeders: 245 ▼ leechers:42
your vote:
real:
fake:
Direct Download
THANK YOU
download torrent
  Direct Downloadsponsored

Prometheus (2012) 1080p torrent

Information about the torrent Prometheus (2012) 1080p. Seeders, leechers and torrent status is updated several times per day.

If you want to download the hdrip torrent Prometheus (2012) 1080p you will need a torrent client.

Torrent Metasearch.

tracker
seeders
leechers
↓ torrent client compatible list

↑ hide torrent client compatible list

Help torrentproject.com to stay alive .
Add links of torrentproject.com in your favorite forum, blog, youtube, facebook, twitter etc.
reviews
140
torrent contents

Prometheus (2012) [1080p] torrent

Prometheus (2012) [1080p]
Prometheus.2012.1080p.BrRip.x264.YIFY.mp41.8 Gb torrent search
WWW.YIFY-TORRENTS.COM.jpg127.61 Kb torrent search
Prometheus.2012.1080p.BrRip.x264.YIFY.mp4.srt91.54 Kb torrent search

Sample info:
Duration: 02:03:45.68, start: 0.000000, bitrate: 2081 kb/s
Stream #0.0	: Video: h264, yuv420p, 1920x800 [PAR 1:1 DAR 12:5], 1985 kb/s, 23.98 fps, 23.98 tbr, 96k tbn, 47.95 tbc
creation_time	: 2012-09-20 18:21:41
Stream #0.1(eng): Audio: aac, 48000 Hz, stereo, s16, 91 kb/s
creation_time	: 2012-09-20 18:22:47
screenshots
Prometheus 2012 1080p torrent screenshot 8E777F258E50F07FB778F6889EA4674A6C86300A Prometheus 2012 1080p torrent screenshot 8e777f258e50f07fb778f6889ea4674a6c86300a torrent Prometheus 2012 1080p
Prometheus (2012) [1080p] images are auto generated please report any inapropriate images
 

related search cloud

 prometheus  yify  brrip  torrents

Torrent Anonymous Download