Torrent Search | Torrent Meta Search | Widgets

Alyssa Branch wmv

214.75 Mb
found 2 years ago
▲ seeders: 17 ▼ leechers:5
your vote:
real:
fake:
Direct Download
THANK YOU
download torrent
  Direct Downloadsponsored

Alyssa Branch wmv torrent

Information about the torrent Alyssa Branch wmv. Seeders, leechers and torrent status is updated several times per day.

If you want to download the video torrent Alyssa Branch wmv you will need a torrent client.

Torrent Metasearch.

tracker
seeders
leechers
↓ torrent client compatible list

↑ hide torrent client compatible list

Help torrentproject.com to stay alive .
Add links of torrentproject.com in your favorite forum, blog, youtube, facebook, twitter etc.
reviews
140
torrent contents

FemdomEmpire.com Alyssa Branch.wmv.wmv torrent

FemdomEmpire.com Alyssa Branch.wmv.wmv214.75 Mb torrent search

Sample info:
Duration: 00:07:08.77, start: 0.000000, bitrate: 4201 kb/s
Stream #0.0(eng): Audio: wmav2, 48000 Hz, 2 channels, s16, 192 kb/s
Stream #0.1(eng): Video: wmv3 (Main), yuv420p, 1280x720, 3999 kb/s, 29.97 tbr, 1k tbn, 1k tbc
screenshots
Alyssa Branch wmv torrent screenshot 8EFC5BD9A9ECA0ED1A154F836B277612F975919C Alyssa Branch wmv torrent screenshot 8efc5bd9a9eca0ed1a154f836b277612f975919c torrent Alyssa Branch wmv
FemdomEmpire.com Alyssa Branch.wmv.wmv images are auto generated please report any inapropriate images
 

related search cloud

 branch  alya  femdomempire