Torrent Search | Torrent Meta Search | Widgets

DivX ITA Aldo Giovanni e Giacomo I Corti

       
709.55 Mb
found 3 years ago
▲ seeders: 19 ▼ leechers:2
your vote:
real:
fake:
Direct Download
THANK YOU
download torrent
  Direct Downloadsponsored

DivX ITA Aldo Giovanni e Giacomo I Corti torrent

Information about the torrent DivX ITA Aldo Giovanni e Giacomo I Corti. Seeders, leechers and torrent status is updated everyday.

If you want to download the video torrent DivX ITA Aldo Giovanni e Giacomo I Corti you will need a torrent client.

Torrent Metasearch.

Torrent verified by kat.ph.

tracker
seeders
leechers
↓ torrent client compatible list

↑ hide torrent client compatible list

Help torrentproject.com to stay alive .
Add links of torrentproject.com in your favorite forum, blog, youtube, facebook, twitter etc.
reviews
140
torrent contents

[DivX - ITA] Aldo Giovanni e Giacomo - I Corti .avi torrent

[DivX - ITA] Aldo Giovanni e Giacomo - I Corti .avi709.55 Mb torrent search

Sample info:
Duration: 01:59:47.64, start: 0.000000, bitrate: 828 kb/s
Stream #0.0: Video: msmpeg4, yuv420p, 456x332, 25 tbr, 25 tbn, 25 tbc
Stream #0.1: Audio: mp3, 44100 Hz, stereo, s16, 102 kb/s
screenshots
DivX ITA Aldo Giovanni torrent screenshot 9120A23116BF26FB2F63701B03EFD3B91B7BFDBF DivX ITA Aldo Giovanni  torrent screenshot 9120a23116bf26fb2f63701b03efd3b91b7bfdbf torrent DivX ITA Aldo Giovanni
[DivX - ITA] Aldo Giovanni e Giacomo - I Corti .avi images are auto generated please report any inapropriate images
 

related search cloud

 corti  giacomo  giovanni  aldo  divx