Torrent Search | Torrent Meta Search | Widgets

SAMA 673

1.29 Gb
found 1 year ago
▲ seeders: 1 ▼ leechers:2
your vote:
real:
fake:
Direct Download
THANK YOU
download torrent
  Direct Downloadsponsored

SAMA 673 torrent

Information about the torrent SAMA 673. Seeders, leechers and torrent status is updated everyday.

If you want to download the video torrent SAMA 673 you will need a torrent client.

Torrent Metasearch.

tracker
seeders
leechers
↓ torrent client compatible list

↑ hide torrent client compatible list

Help torrentproject.com to stay alive .
Add links of torrentproject.com in your favorite forum, blog, youtube, facebook, twitter etc.
reviews
anonymous 21 Sep 2013, 01:09:40
SAMA-673
140
torrent contents

SAMA-673.mp4 torrent

SAMA-673.mp41.29 Gb torrent search

Sample info:
Duration: 02:19:59.79, start: 0.000000, bitrate: 1323 kb/s
Stream #0:0(eng): Audio: aac (mp4a / 0x6134706D), 44100 Hz, stereo, s16, 125 kb/s
creation_time	: 2013-07-11 20:48:51
handler_name	: Mainconcept MP4 Sound Media Handler
Stream #0:1(eng): Video: h264 (Baseline) (avc1 / 0x31637661), yuv420p, 720x400 [SAR 1:1 DAR 9:5], 1194 kb/s, 30 fps, 30 tbr, 30k tbn, 60 tbc
creation_time	: 2013-07-11 20:48:51
handler_name	: Mainconcept MP4 Video Media Handler
screenshots
SAMA 673 torrent screenshot 96A279A5F966C031DA2E187D061280224D934B9A SAMA 673 torrent screenshot 96a279a5f966c031da2e187d061280224d934b9a torrent SAMA 673
SAMA-673.mp4 images are auto generated please report any inapropriate images
you may be interested in these torrents seeders leechers size found
【sharemovie】【sex8 cc】sama 673 热亚洲可爱与美丽的山雀 0 1 1.29 Gb 10 months ago

【SEX8.cc】【性吧】地址发布器.txt 【SEX8.cc】


im520@SIS001@SAMA 673 0 1 516.5 Mb 1 year ago

SAMA-673.jpg SAMA-673.rmvb SIS001影视联盟.gif im520@www.sis001.com.url


tony657@ sexinsex net@SAMA 673 0 1 1.3 Gb 1 year ago

BT原创区招收标准原创专职发帖手,待遇优厚! -SIS压片精英制作小组组员 - SiteRip&a


 

related search cloud

 sama