Torrent Search | Torrent Meta Search | Widgets

karina heart 52356v1 high

495.9 Mb
found 10 months ago
▲ seeders: 6 ▼ leechers:0
your vote:
real:
fake:
Direct Download
THANK YOU
download torrent
  Direct Downloadsponsored

karina heart 52356v1 high torrent

Information about the torrent karina heart 52356v1 high. Seeders, leechers and torrent status is updated several times per day.

If you want to download the video torrent karina heart 52356v1 high you will need a torrent client.

Torrent Metasearch.

tracker
seeders
leechers
↓ torrent client compatible list

↑ hide torrent client compatible list

Help torrentproject.com to stay alive .
Add links of torrentproject.com in your favorite forum, blog, youtube, facebook, twitter etc.
reviews
140
torrent contents

karina-heart-52356v1-high.mp4 torrent

karina-heart-52356v1-high.mp4495.9 Mb torrent search

Sample info:
Duration: 00:16:33.49, start: 0.000000, bitrate: 4186 kb/s
Stream #0:0(eng): Video: h264 (Main) (avc1 / 0x31637661), yuv420p, 1280x720 [SAR 1:1 DAR 16:9], 3993 kb/s, 29.97 fps, 29.97 tbr, 29970 tbn, 59.94 tbc
creation_time	: 2013-07-05 17:30:16
handler_name	: Mainconcept MP4 Video Media Handler
Stream #0:1(eng): Audio: aac (mp4a / 0x6134706D), 48000 Hz, stereo, s16, 189 kb/s
creation_time	: 2013-07-05 17:30:16
handler_name	: Mainconcept MP4 Sound Media Handler
screenshots
karina heart 52356v1 high torrent screenshot 9CFEEEB6AB8342E774CC1FAFD36B04B79DCD9EF5 karina heart 52356v1 high torrent screenshot 9cfeeeb6ab8342e774cc1fafd36b04b79dcd9ef5 torrent karina heart 52356v1 high
karina-heart-52356v1-high.mp4 images are auto generated please report any inapropriate images
 

related search cloud

 high  heart  karina

Torrent Anonymous Download