Torrent Search | Torrent Meta Search | Widgets

Sirina A Widow In Thailand 2013+Backstage

605.43 Mb
found 11 months ago
▲ seeders: 59 ▼ leechers:2
your vote:
real:
fake:
Direct Download
THANK YOU
download torrent
  Direct Downloadsponsored

Sirina A Widow In Thailand 2013+Backstage torrent

Information about the torrent Sirina A Widow In Thailand 2013+Backstage. Seeders, leechers and torrent status is updated several times per day.

If you want to download the video torrent Sirina A Widow In Thailand 2013+Backstage you will need a torrent client.

Torrent Metasearch.

tracker
seeders
leechers
↓ torrent client compatible list

↑ hide torrent client compatible list

Help torrentproject.com to stay alive .
Add links of torrentproject.com in your favorite forum, blog, youtube, facebook, twitter etc.
reviews
anonymous 07 Aug 2014, 08:08:42
tyn
140
torrent contents

Sirina.A.Widow.In.Thailand.2013+Backstage torrent

Sirina.A.Widow.In.Thailand.2013+Backstage
Backstage Screenshots.jpg176.26 Kb torrent search
Cover.jpg134.36 Kb torrent search
Movie Screenshots.jpg140.44 Kb torrent search
Sirina.A.Widow.In.Thailand.2013.Backstage.mkv118.35 Mb torrent search
Sirina.A.Widow.In.Thailand.Mia.Xira.Stin.Tailandi.2013.mkv486.64 Mb torrent search

Sample info:
Duration: 01:20:03.08, start: 0.000000, bitrate: 849 kb/s
Stream #0:0(eng): Video: h264 (Main), yuv420p, 720x576 [SAR 64:45 DAR 16:9], 25 fps, 25 tbr, 1k tbn, 50 tbc (default)
Stream #0:1: Audio: aac, 48000 Hz, stereo, s16 (default)
screenshots
Sirina A Widow In torrent screenshot A18872E9702FE12BDD7965961F1CC5431BD475CE Sirina A Widow In  torrent screenshot a18872e9702fe12bdd7965961f1cc5431bd475ce torrent Sirina A Widow In
Sirina.A.Widow.In.Thailand.2013+Backstage images are auto generated please report any inapropriate images
 

related search cloud

 backstage  thailand  widow  sirina  screenshots  tailandi  stin  xira  movie  cover