Torrent Search | Torrent Meta Search | Widgets

Slash LIVE @ Sydney August 25th (2012) FULL CONCERT

1.66 Gb
found 2 years ago
▲ seeders: 16 ▼ leechers:1
your vote:
real:
fake:
Direct Download
THANK YOU
download torrent
  Direct Downloadsponsored

Slash LIVE @ Sydney August 25th (2012) FULL CONCERT torrent

Information about the torrent Slash LIVE @ Sydney August 25th (2012) FULL CONCERT. Seeders, leechers and torrent status is updated several times per day.

If you want to download the video torrent Slash LIVE @ Sydney August 25th (2012) FULL CONCERT you will need a torrent client.

Torrent Metasearch.

tracker
seeders
leechers
↓ torrent client compatible list

↑ hide torrent client compatible list

Help torrentproject.com to stay alive .
Add links of torrentproject.com in your favorite forum, blog, youtube, facebook, twitter etc.
reviews
140
torrent contents

Slash LIVE @ Sydney August 25th 2012 FULL CONCERT torrent

Slash LIVE @ Sydney August 25th 2012 FULL CONCERT
Slash feat. Myles Kennedy & The Conspirators - Live Music Concert Video - Sydney Entertainment Centre, Sydney 2012    Moshcam.flv1.66 Gb torrent search

Sample info:
Duration: 02:25:36.57, start: 0.000000, bitrate: N/A
Stream #0.0: Video: h264 (Main), yuv420p, 854x480 [PAR 1:1 DAR 427:240], 25 tbr, 1k tbn, 50 tbc
Stream #0.1: Audio: aac, 44100 Hz, stereo, s16
screenshots
Slash LIVE Sydney August torrent screenshot A33683EF363D532C8F83982207F907051C50847A Slash LIVE Sydney August  torrent screenshot a33683ef363d532c8f83982207f907051c50847a torrent Slash LIVE Sydney August
Slash LIVE @ Sydney August 25th 2012 FULL CONCERT images are auto generated please report any inapropriate images
 

related search cloud

 sydney  slash  concert  nbsp  live  entertainment  video  centre  moshcam  music

Torrent Anonymous Download