Torrent Search | Torrent Meta Search | Widgets

Only Real Homemade Porn

       
1.36 Gb
found 3 years ago
▲ seeders: 10 ▼ leechers:5
your vote:
real:
fake:
Direct Download
THANK YOU
download torrent
  Direct Downloadsponsored

Only Real Homemade Porn torrent

Information about the torrent Only Real Homemade Porn. Seeders, leechers and torrent status is updated everyday.

If you want to download the amateur torrent Only Real Homemade Porn you will need a torrent client.

Torrent Metasearch.

Torrent verified by isohunt.com.

tracker
seeders
leechers
↓ torrent client compatible list

↑ hide torrent client compatible list

Help torrentproject.com to stay alive .
Add links of torrentproject.com in your favorite forum, blog, youtube, facebook, twitter etc.
reviews
140
torrent contents

Only Real Homemade Porn torrent

Only Real Homemade Porn
Only.Real.Homemade.Porn.avi1.36 Gb torrent search
1.jpg218.5 Kb torrent search
displayimg.php.jpg38.39 Kb torrent search

Sample info:
Duration: 03:13:47.80, start: 0.000000, bitrate: 1007 kb/s
Stream #0.0: Video: mpeg4 (Advanced Simple Profile), yuv420p, 512x384 [PAR 1:1 DAR 4:3], 25 tbr, 25 tbn, 25 tbc
Stream #0.1: Audio: mp3, 32000 Hz, stereo, s16, 71 kb/s
screenshots
Only Real Homemade Porn torrent screenshot A769A091D42144D926EBF4A927DECC07AF143A78 Only Real Homemade Porn torrent screenshot a769a091d42144d926ebf4a927decc07af143a78 torrent Only Real Homemade Porn
Only Real Homemade Porn images are auto generated please report any inapropriate images
 

related search cloud

 porn  only  homemade  real  displayimg