Torrent Search | Torrent Meta Search | Widgets

Oblivion (2013) BluRay 720p DTS x264 3Li

4.4 Gb
found 1 year ago
▲ seeders: 24 ▼ leechers:5
your vote:
real:
fake:
Direct Download
THANK YOU
download torrent
  Direct Downloadsponsored

Oblivion (2013) BluRay 720p DTS x264 3Li torrent

Information about the torrent Oblivion (2013) BluRay 720p DTS x264 3Li. Seeders, leechers and torrent status is updated everyday.

If you want to download the hdrip torrent Oblivion (2013) BluRay 720p DTS x264 3Li you will need a torrent client.

Torrent Metasearch.

tracker
seeders
leechers
↓ torrent client compatible list

↑ hide torrent client compatible list

Help torrentproject.com to stay alive .
Add links of torrentproject.com in your favorite forum, blog, youtube, facebook, twitter etc.
reviews
140
torrent contents

Oblivion 2013 BluRay 720p DTS x264-3Li torrent

Oblivion 2013 BluRay 720p DTS x264-3Li
Oblivion 2013 BluRay 720p DTS x264-3Li.mkv4.37 Gb torrent search

Oblivion 2013 BluRay 720p DTS x264-3Li
 Subtitle,info
Oblivion 2013 BluRay 720p DTS x264-3Li Romanian.srt69.08 Kb torrent search
Torrent Downloaded From ExtraTorrent.com.txt364 bytes torrent search
Oblivion 2013 BluRay 720p DTS x264-3Li English.srt64.22 Kb torrent search
3Li info Movie Oblivion.nfo1.66 Kb torrent search

Oblivion 2013 BluRay 720p DTS x264-3Li
 Sample,Screens
Oblivion Screen 06.png903.39 Kb torrent search
Oblivion Screen 07.png1017.52 Kb torrent search
Oblivion Screen 03.png948.23 Kb torrent search
Oblivion Sample.mkv25.56 Mb torrent search
Oblivion Screen 01.png974.47 Kb torrent search
Oblivion Poster 2.jpg444.86 Kb torrent search
Oblivion Screen 08.png977.25 Kb torrent search
Oblivion Poster 1.jpg414.19 Kb torrent search
Oblivion Screen 02.png896.1 Kb torrent search
Oblivion Box Cover.png277.94 Kb torrent search
Oblivion Screen 05.png883.87 Kb torrent search
Oblivion Screen 04.png975.19 Kb torrent search

Sample info:
Duration: 02:04:42.34, start: 0.000000, bitrate: 5011 kb/s
Stream #0:0(eng): Video: h264 (High), yuv420p, 1280x536 [SAR 1:1 DAR 160:67], 23.98 fps, 23.98 tbr, 1k tbn, 47.95 tbc (default)
title	: Oblivion 2013 By 3Li
Stream #0:1(eng): Audio: dts (DTS), 48000 Hz, 5.1(side), s16, 768 kb/s (default)
title	: Oblivion 2013 DTS 5.1 - 768 Kbps
screenshots
Oblivion 2013 BluRay 720p torrent screenshot A811CA931436769A5C9E604E79C12FE2E43B8686 Oblivion 2013 BluRay 720p  torrent screenshot a811ca931436769a5c9e604e79c12fe2e43b8686 torrent Oblivion 2013 BluRay 720p
Oblivion 2013 BluRay 720p DTS x264-3Li images are auto generated please report any inapropriate images
 

related search cloud

 oblivion  screen  bluray  sample  poster  info  cover  screens  movie  extratorrent