Torrent Search | Torrent Meta Search | Widgets

Project GO

1.29 Gb
found 1 year ago
▲ seeders: 24 ▼ leechers:0
your vote:
real:
fake:
Direct Download
THANK YOU
download torrent
  Direct Downloadsponsored

Project GO torrent

Information about the torrent Project GO. Seeders, leechers and torrent status is updated everyday.

If you want to download the milf torrent Project GO you will need a torrent client.

Torrent Metasearch.

tracker
seeders
leechers
↓ torrent client compatible list

↑ hide torrent client compatible list

Help torrentproject.com to stay alive .
Add links of torrentproject.com in your favorite forum, blog, youtube, facebook, twitter etc.
reviews
140
torrent contents

Project GO torrent

Project GO
WEEK 1 Approaching A Girl Who's Working.mp480.59 Mb torrent search
Week 1 BONUS - Ask Girls If They Have Aids, then Take Them to Whole Foods.mp451.61 Mb torrent search
Week 2 Kong Makes Out With A MILF.mp4321 Mb torrent search
WEEK 3 Stopping Girls in a Hurry.mp455.79 Mb torrent search
WEEK 4 Rejections.mp450.04 Mb torrent search
WEEK 5 Girls on Cell Phones .mp4102.68 Mb torrent search
WEEK 6 Instant Date HD.mp4352.16 Mb torrent search
WEEK 7 Conservative Girls + Text Conversation.mp491.28 Mb torrent search
WEEK 8 Dealing with Dudes SD.mp4107.82 Mb torrent search
WEEK 9 Jumping Jacks SD.mp4104.46 Mb torrent search

Sample info:
Duration: 00:26:35.52, start: 0.000000, bitrate: 1851 kb/s
Stream #0.0	: Video: h264 (High), yuv420p, 1280x720 [PAR 1:1 DAR 16:9], 1690 kb/s, 29.97 fps, 29.97 tbr, 30k tbn, 59.94 tbc
creation_time	: 2012-06-14 22:28:36
Stream #0.1	: Audio: aac, 44100 Hz, stereo, s16, 157 kb/s
creation_time	: 2012-06-14 22:28:40
screenshots
Project GO torrent screenshot A84E520094E515AFA3BFF309E7F4802824F59487 Project GO torrent screenshot a84e520094e515afa3bff309e7f4802824f59487 torrent Project GO
Project GO images are auto generated please report any inapropriate images
 

related search cloud

 week  girls  phones  instant  cell  rejections  stopping  hurry  date  text

Torrent Anonymous Download