Torrent Search | Torrent Meta Search | Widgets

SRS 022

986.32 Mb
found 6 months ago
▲ seeders: 20 ▼ leechers:3
your vote:
real:
fake:
Direct Download
THANK YOU
download torrent
  Direct Downloadsponsored

SRS 022 torrent

Information about the torrent SRS 022. Seeders, leechers and torrent status is updated everyday.

If you want to download the video torrent SRS 022 you will need a torrent client.

Torrent Metasearch.

tracker
seeders
leechers
↓ torrent client compatible list

↑ hide torrent client compatible list

Help torrentproject.com to stay alive .
Add links of torrentproject.com in your favorite forum, blog, youtube, facebook, twitter etc.
reviews
140
torrent contents

SRS-022 torrent

SRS-022
3xplanet_SRS-022.avi986.32 Mb torrent search

Sample info:
Duration: 02:00:46.47, start: 0.000000, bitrate: 1141 kb/s
Stream #0:0: Video: mpeg4 (Simple Profile) (DIVX / 0x58564944), yuv420p, 720x406 [SAR 1:1 DAR 360:203], 29.97 fps, 29.97 tbr, 29.97 tbn, 30k tbc
Stream #0:1: Audio: mp3 (U[0][0][0] / 0x0055), 48000 Hz, stereo, s16, 128 kb/s
screenshots
SRS 022 torrent screenshot A9494585EB9121E55E817235247567ABAF3E5BA2 SRS 022 torrent screenshot a9494585eb9121e55e817235247567abaf3e5ba2 torrent SRS 022
SRS-022 images are auto generated please report any inapropriate images
 

related search cloud

 xplanet