Torrent Search | Torrent Meta Search | Widgets

Sole A Catinelle (2013) iTALiAN MD CAM XviD FaceLinks me

1.39 Gb
found 5 months ago
▲ seeders: 455 ▼ leechers:8
your vote:
real:
fake:
Direct Download
THANK YOU
download torrent
  Direct Downloadsponsored

Sole A Catinelle (2013) iTALiAN MD CAM XviD FaceLinks me torrent

Information about the torrent Sole A Catinelle (2013) iTALiAN MD CAM XviD FaceLinks me. Seeders, leechers and torrent status is updated everyday.

If you want to download the video torrent Sole A Catinelle (2013) iTALiAN MD CAM XviD FaceLinks me you will need a torrent client.

Torrent Metasearch.

tracker
seeders
leechers
↓ torrent client compatible list

↑ hide torrent client compatible list

Help torrentproject.com to stay alive .
Add links of torrentproject.com in your favorite forum, blog, youtube, facebook, twitter etc.
reviews
140
torrent contents

Sole.A.Catinelle.2013.iTALiAN.MD.CAM.XviD.[www.FaceLinks.me].avi torrent

Sole.A.Catinelle.2013.iTALiAN.MD.CAM.XviD.[www.FaceLinks.me].avi1.39 Gb torrent search

Sample info:
Duration: 01:22:41.84, start: 0.000000, bitrate: 2408 kb/s
Stream #0:0: Video: mpeg4 (Advanced Simple Profile) (XVID / 0x44495658), yuv420p, 720x336 [SAR 1:1 DAR 15:7], 25 tbr, 25 tbn, 25 tbc
Stream #0:1: Audio: mp3 (U[0][0][0] / 0x0055), 48000 Hz, stereo, s16, 127 kb/s
screenshots
Sole A Catinelle 2013 torrent screenshot AAC8C799BDEF5AFC8C5EEED3989DA092B23EC137 Sole A Catinelle 2013  torrent screenshot aac8c799bdef5afc8c5eeed3989da092b23ec137 torrent Sole A Catinelle 2013
Sole.A.Catinelle.2013.iTALiAN.MD.CAM.XviD.[www.FaceLinks.me].avi images are auto generated please report any inapropriate images
 

related search cloud

 facelinks  xvid  italian  catinelle  sole

Torrent Anonymous Download