Torrent Search | Torrent Meta Search | Widgets

V boy idut odni stariki (1973)

       
1.37 Gb
found 3 years ago
▲ seeders: 16 ▼ leechers:1
your vote:
real:
fake:
Direct Download
THANK YOU
download torrent
  Direct Downloadsponsored

V boy idut odni stariki (1973) torrent

Information about the torrent V boy idut odni stariki (1973). A torrent file stores metadata that can be used from a BitTorrent client.

If you want to download the video torrent V boy idut odni stariki (1973) you will need a torrent client.

Torrent Metasearch.

.

tracker
seeders
leechers
↓ torrent client compatible list

↑ hide torrent client compatible list

Help torrentproject.com to stay alive .
Add links of torrentproject.com in your favorite forum, blog, youtube, facebook, twitter etc.
reviews
140
torrent contents

V boy idut odni stariki (1973).avi torrent

V boy idut odni stariki (1973).avi1.37 Gb torrent search

Sample info:
Duration: 01:27:01.44, start: 0.000000, bitrate: 2249 kb/s
Stream #0.0: Video: mpeg4, yuv420p, 608x448 [PAR 1:1 DAR 19:14], 25 fps, 25 tbr, 25 tbn, 30k tbc
Stream #0.1: Audio: ac3, 48000 Hz, 5.1, s16, 448 kb/s
screenshots
V boy idut odni torrent screenshot AD06AEA08DBC885961D4847987E2C05D1F3F8D56 V boy idut odni  torrent screenshot ad06aea08dbc885961d4847987e2c05d1f3f8d56 torrent V boy idut odni
V boy idut odni stariki (1973).avi images are auto generated please report any inapropriate images
 

related search cloud

 stariki  odni  idut