Torrent Search | Torrent Meta Search | Widgets

Los amantes del circulo polar DVDRip

       
702.02 Mb
found 2 years ago
▲ seeders: 46 ▼ leechers:1
your vote:
real:
fake:
Direct Download
THANK YOU
download torrent
  Direct Downloadsponsored

Los amantes del circulo polar DVDRip torrent

Information about the torrent Los amantes del circulo polar DVDRip. Seeders, leechers and torrent status is updated several times per day.

If you want to download the dvdrip torrent Los amantes del circulo polar DVDRip you will need a torrent client.

Torrent Metasearch.

Torrent verified by kat.ph.

tracker
seeders
leechers
↓ torrent client compatible list

↑ hide torrent client compatible list

Help torrentproject.com to stay alive .
Add links of torrentproject.com in your favorite forum, blog, youtube, facebook, twitter etc.
reviews
140
torrent contents

Los amantes del circulo polar.DVDRIP.www.lokotorrents.com torrent

Los amantes del circulo polar.DVDRIP.www.lokotorrents.com
Los amantes del circulo polar.DVDRIP.www.lokotorrents.com.divx702.02 Mb torrent search
PARA VER ESTE ARCHIVO-IMPORTANTE.txt610 bytes torrent search

Sample info:
Duration: 01:43:41.84, start: 0.000000, bitrate: 946 kb/s
Stream #0.0: Video: mpeg4, yuv420p, 512x208 [PAR 1:1 DAR 32:13], 25 fps, 25 tbr, 25 tbn, 30k tbc
Stream #0.1: Audio: mp3, 44100 Hz, stereo, s16, 95 kb/s
screenshots
Los amantes del circulo torrent screenshot ADBE28F18A3DD1348A5F02A777FD9AD8011DCA91 Los amantes del circulo  torrent screenshot adbe28f18a3dd1348a5f02a777fd9ad8011dca91 torrent Los amantes del circulo
Los amantes del circulo polar.DVDRIP.www.lokotorrents.com images are auto generated please report any inapropriate images
 

related search cloud

 amantes  dvdrip  lokotorrents  polar  circulo  importante  archivo  para  este

Torrent Anonymous Download