Torrent Search | Torrent Meta Search | Widgets

la spada nella roccia

       
699.96 Mb
found 3 years ago
▲ seeders: 19 ▼ leechers:1
your vote:
real:
fake:
Direct Download
THANK YOU
download torrent
  Direct Downloadsponsored

la spada nella roccia torrent

Information about the torrent la spada nella roccia. Seeders, leechers and torrent status is updated several times per day.

If you want to download the video torrent la spada nella roccia you will need a torrent client.

Torrent Metasearch.

Torrent verified by torlock.com.

tracker
seeders
leechers
↓ torrent client compatible list

↑ hide torrent client compatible list

Help torrentproject.com to stay alive .
Add links of torrentproject.com in your favorite forum, blog, youtube, facebook, twitter etc.
reviews
140
torrent contents

la spada nella roccia.avi torrent

la spada nella roccia.avi699.96 Mb torrent search

Sample info:
Duration: 01:16:22.68, start: 0.000000, bitrate: 1281 kb/s
Stream #0.0: Video: mpeg4 (Advanced Simple Profile), yuv420p, 448x336 [PAR 1:1 DAR 4:3], 25 tbr, 25 tbn, 25 tbc
Stream #0.1: Audio: mp3, 48000 Hz, stereo, s16, 320 kb/s
screenshots
la spada nella roccia torrent screenshot B187C925430D9EF791D5082D0983BE16B1F752F5 la spada nella roccia torrent screenshot b187c925430d9ef791d5082d0983be16b1f752f5 torrent la spada nella roccia
la spada nella roccia.avi images are auto generated please report any inapropriate images
 

related search cloud

 roccia  nella  spada