Torrent Search | Torrent Meta Search | Widgets

Клипы запрещеные на TV

       
2.92 Gb
found 3 years ago
▲ seeders: 14 ▼ leechers:3
your vote:
real:
fake:
Direct Download
THANK YOU
download torrent
  Direct Downloadsponsored

Клипы запрещеные на TV torrent

Information about the torrent Клипы запрещеные на TV. Seeders, leechers and torrent status is updated everyday.

If you want to download the video torrent Клипы запрещеные на TV you will need a torrent client.

Torrent Metasearch.

.

tracker
seeders
leechers
↓ torrent client compatible list

↑ hide torrent client compatible list

Help torrentproject.com to stay alive .
Add links of torrentproject.com in your favorite forum, blog, youtube, facebook, twitter etc.
reviews
140
torrent contents

Клипы запрещеные на TV torrent

Клипы запрещеные на TV
16.avi135.16 Mb torrent search
09.avi135.06 Mb torrent search
15.avi130.1 Mb torrent search
11.avi129.94 Mb torrent search
10.avi126.94 Mb torrent search
08.avi125.25 Mb torrent search
12.avi124.34 Mb torrent search
02.avi121.26 Mb torrent search
25.avi117.23 Mb torrent search
01.avi116.85 Mb torrent search
20.avi114.75 Mb torrent search
27.avi114.64 Mb torrent search
22.avi114.13 Mb torrent search
05.avi113.31 Mb torrent search
19.avi112.11 Mb torrent search
06.avi111.08 Mb torrent search
24.avi110.98 Mb torrent search
17.avi105.44 Mb torrent search
23.avi105.15 Mb torrent search
07.avi105.04 Mb torrent search
03.avi104.34 Mb torrent search
13.avi102.65 Mb torrent search
21.avi101.76 Mb torrent search
18.avi95.45 Mb torrent search
26.avi85.93 Mb torrent search
14.avi73.46 Mb torrent search
04.avi54.61 Mb torrent search

Sample info:
Duration: 00:04:34.50, start: 0.000000, bitrate: 4130 kb/s
Stream #0.0: Video: mpeg4 (Simple Profile), yuv420p, 1280x720 [PAR 1:1 DAR 16:9], 24 tbr, 24 tbn, 24 tbc
Stream #0.1: Audio: mp3, 48000 Hz, stereo, s16, 128 kb/s
screenshots
Клипы запрещеные на TV torrent screenshot B2C8A128DFD495276D3B77C5E28A660A6C9932AF Клипы запрещеные на TV torrent screenshot b2c8a128dfd495276d3b77c5e28a660a6c9932af torrent Клипы запрещеные на TV
Клипы запрещеные на TV images are auto generated please report any inapropriate images
you may be interested in these torrents seeders leechers size found
Клипы запрещеные на TV 7 0 2.92 Gb 3 years ago

16 Коррозия Металла - Русская водка.avi 09 Алексей Б


Клипы запрещеные на TV 6 1 2.92 Gb 1 year ago

коррозия металла рашн водка.avi одесса.avi 0