Torrent Search | Torrent Meta Search | Widgets

Woodman Casting X – Mylena

899.13 Mb
found 12 months ago
▲ seeders: 1 ▼ leechers:2
your vote:
real:
fake:
Direct Download
THANK YOU
download torrent
  Direct Downloadsponsored

Woodman Casting X – Mylena torrent

Information about the torrent Woodman Casting X – Mylena. Seeders, leechers and torrent status is updated several times per day.

If you want to download the video torrent Woodman Casting X – Mylena you will need a torrent client.

Torrent Metasearch.

tracker
seeders
leechers
↓ torrent client compatible list

↑ hide torrent client compatible list

Help torrentproject.com to stay alive .
Add links of torrentproject.com in your favorite forum, blog, youtube, facebook, twitter etc.
reviews
140
torrent contents

Woodman Casting X – Mylena torrent

Woodman Casting X – Mylena
Mylena_wcx.mov899.13 Mb torrent search

Sample info:
Duration: 00:12:04.16, start: 0.000000, bitrate: 10415 kb/s
Stream #0:0(eng): Video: h264 (Main) (avc1 / 0x31637661), yuv420p, 1920x1080, 10281 kb/s, 25 fps, 25 tbr, 25 tbn, 50 tbc
creation_time	: 2013-08-02 20:51:48
handler_name	: Apple Video Media Handler
Stream #0:1(eng): Audio: aac (mp4a / 0x6134706D), 48000 Hz, stereo, s16, 129 kb/s
creation_time	: 2013-08-02 20:51:48
handler_name	: Apple Sound Media Handler
Stream #0:2(eng): Data: none (tmcd / 0x64636D74)
creation_time	: 2013-08-02 21:07:25
handler_name	: Time Code Media Handler
timecode	: 00:00:00:00
screenshots
Woodman Casting X – torrent screenshot B73BE830E137093885F194289C76587A5378F8B6 Woodman Casting X –  torrent screenshot b73be830e137093885f194289c76587a5378f8b6 torrent Woodman Casting X –
Woodman Casting X – Mylena images are auto generated please report any inapropriate images
 

related search cloud

 mylena  casting  woodman