Torrent Search | Torrent Meta Search | Widgets

Divx ita DVDRip Il Signore Degli Anelli La Compagnia Dell anello Extended Edition

       
1.81 Gb
found 4 years ago
▲ seeders: 19 ▼ leechers:3
your vote:
real:
fake:
Direct Download
THANK YOU
download torrent
  Direct Downloadsponsored

Divx ita DVDRip Il Signore Degli Anelli La Compagnia Dell anello Extended Edition torrent

Information about the torrent Divx ita DVDRip Il Signore Degli Anelli La Compagnia Dell anello Extended Edition. Seeders, leechers and torrent status is updated everyday.

If you want to download the dvdrip torrent Divx ita DVDRip Il Signore Degli Anelli La Compagnia Dell anello Extended Edition you will need a torrent client.

Torrent Metasearch.

.

tracker
seeders
leechers
↓ torrent client compatible list

↑ hide torrent client compatible list

Help torrentproject.com to stay alive .
Add links of torrentproject.com in your favorite forum, blog, youtube, facebook, twitter etc.
reviews
140
torrent contents

[Divx-ita-DVDrip]Il.Signore.Degli.Anelli-La.Compagnia.Dell anello-Extended.Edition.avi torrent

[Divx-ita-DVDrip]Il.Signore.Degli.Anelli-La.Compagnia.Dellanello-Extended.Edition.avi1.81 Gb torrent search

Sample info:
Duration: 03:38:48.48, start: 0.000000, bitrate: 1186 kb/s
Stream #0.0: Video: mpeg4, yuv420p, 568x232 [PAR 1:1 DAR 71:29], 25 fps, 25 tbr, 25 tbn, 30k tbc
Stream #0.1: Audio: mp3, 48000 Hz, 2 channels, s16, 319 kb/s
screenshots
Divx ita DVDRip Il torrent screenshot B929025C476861B64128E26760F0B959A1AEFC5F Divx ita DVDRip Il  torrent screenshot b929025c476861b64128e26760f0b959a1aefc5f torrent Divx ita DVDRip Il
[Divx-ita-DVDrip]Il.Signore.Degli.Anelli-La.Compagnia.Dell anello-Extended.Edition.avi images are auto generated please report any inapropriate images
 

related search cloud

 dellanello  extended  edition  compagnia  anelli  dvdrip  signore  degli  divx