Torrent Search | Torrent Meta Search | Widgets

Os Bad Boys (1995) BDRip 1080p Dublado The Pirate Filmes

1.94 Gb
found 9 months ago
▲ seeders: 24 ▼ leechers:6
your vote:
real:
fake:
Direct Download
THANK YOU
download torrent
  Direct Downloadsponsored

Os Bad Boys (1995) BDRip 1080p Dublado The Pirate Filmes torrent

Information about the torrent Os Bad Boys (1995) BDRip 1080p Dublado The Pirate Filmes. Seeders, leechers and torrent status is updated everyday.

If you want to download the hdrip torrent Os Bad Boys (1995) BDRip 1080p Dublado The Pirate Filmes you will need a torrent client.

Torrent Metasearch.

tracker
seeders
leechers
↓ torrent client compatible list

↑ hide torrent client compatible list

Help torrentproject.com to stay alive .
Add links of torrentproject.com in your favorite forum, blog, youtube, facebook, twitter etc.
reviews
140
torrent contents

Os Bad Boys (1995) BDRip 1080p Dublado - The Pirate Filmes torrent

Os Bad Boys (1995) BDRip 1080p Dublado - The Pirate Filmes
Os Bad Boys - ToTTi9.mp41.94 Gb torrent search
ThePirateFilmes.jpg78.16 Kb torrent search
(www.ThePirateFilmes.com).txt1.08 Kb torrent search

Sample info:
Duration: 01:58:50.54, start: 0.000000, bitrate: 2336 kb/s
Stream #0:0(eng): Video: h264 (High) (avc1 / 0x31637661), yuv420p, 1920x1040, 2205 kb/s, 23.98 fps, 23.98 tbr, 24k tbn, 47.95 tbc
creation_time	: 2013-08-14 18:32:03
handler_name	: ToTTi9
Stream #0:1(por): Audio: mp3 (mp4a / 0x6134706D), 44100 Hz, stereo, s16, 127 kb/s
creation_time	: 2013-08-26 11:59:20
handler_name	: ToTTi9
screenshots
Os Bad Boys 1995 torrent screenshot BD1CEB26B32979F0BFA4037FA8DC52C31E5A3DD7 Os Bad Boys 1995  torrent screenshot bd1ceb26b32979f0bfa4037fa8dc52c31e5a3dd7 torrent Os Bad Boys 1995
Os Bad Boys (1995) BDRip 1080p Dublado - The Pirate Filmes images are auto generated please report any inapropriate images
 

related search cloud

 boys  thepiratefilmes  filmes  totti  pirate  bdrip  dublado