Torrent Search | Torrent Meta Search | Widgets

Cocoa Nut Busters 2

1.58 Gb
found 1 year ago
▲ seeders: 4 ▼ leechers:3
your vote:
real:
fake:
Direct Download
THANK YOU
download torrent
  Direct Downloadsponsored

Cocoa Nut Busters 2 torrent

Information about the torrent Cocoa Nut Busters 2. Seeders, leechers and torrent status is updated several times per day.

If you want to download the video torrent Cocoa Nut Busters 2 you will need a torrent client.

Torrent Metasearch.

tracker
seeders
leechers
↓ torrent client compatible list

↑ hide torrent client compatible list

Help torrentproject.com to stay alive .
Add links of torrentproject.com in your favorite forum, blog, youtube, facebook, twitter etc.
reviews
140
torrent contents

Cocoa Nut Busters 2 torrent

Cocoa Nut Busters 2
Cocoa Nut Busters 2 - Disc 1.avi776.81 Mb torrent search
Cocoa Nut Busters 2 - Disc 1.jpg354.78 Kb torrent search
Cocoa Nut Busters 2 - Disc 2.avi837.59 Mb torrent search
Cocoa Nut Busters 2 - Disc 2.jpg379.61 Kb torrent search

Sample info:
Duration: 02:37:27.67, start: 0.000000, bitrate: 743 kb/s
Stream #0:0: Video: mpeg4 (Advanced Simple Profile) (XVID / 0x44495658), yuv420p, 600x338 [SAR 1:1 DAR 300:169], 29.97 tbr, 29.97 tbn, 29.97 tbc
Stream #0:1: Audio: mp3 (U[0][0][0] / 0x0055), 24000 Hz, stereo, s16, 32 kb/s
screenshots
Cocoa Nut Busters 2 torrent screenshot BD5E42B6B09EBBC1B0CE5CA5151EB5CDBDEA2285 Cocoa Nut Busters 2 torrent screenshot bd5e42b6b09ebbc1b0ce5ca5151eb5cdbdea2285 torrent Cocoa Nut Busters 2
Cocoa Nut Busters 2 images are auto generated please report any inapropriate images
 

related search cloud

 cocoa  busters  disc