Torrent Search | Torrent Meta Search | Widgets

Lexi Belle Rachel Roxxx Capri Cavanni Mia Malkova (2013) HD 720p

886.14 Mb
found 1 year ago
▲ seeders: 2 ▼ leechers:1
your vote:
real:
fake:
Direct Download
THANK YOU
download torrent
  Direct Downloadsponsored

Lexi Belle Rachel Roxxx Capri Cavanni Mia Malkova (2013) HD 720p torrent

Information about the torrent Lexi Belle Rachel Roxxx Capri Cavanni Mia Malkova (2013) HD 720p. Seeders, leechers and torrent status is updated several times per day.

If you want to download the hdrip torrent Lexi Belle Rachel Roxxx Capri Cavanni Mia Malkova (2013) HD 720p you will need a torrent client.

Torrent Metasearch.

tracker
seeders
leechers
↓ torrent client compatible list

↑ hide torrent client compatible list

Help torrentproject.com to stay alive .
Add links of torrentproject.com in your favorite forum, blog, youtube, facebook, twitter etc.
reviews
140
torrent contents

Lexi Belle, Rachel Roxxx, Capri Cavanni, Mia Malkova (2013) HD 720p torrent

Lexi Belle, Rachel Roxxx, Capri Cavanni, Mia Malkova (2013) HD 720p
MySistersHotFriend - Capri Cavanni , Lexi Belle , Mia Malkova , Rachel Roxxx 720p NEW August 09, 2013.mp4886.14 Mb torrent search

Sample info:
Duration: 00:39:31.45, start: 0.000000, bitrate: 3134 kb/s
Stream #0:0(eng): Video: h264 (High) (avc1 / 0x31637661), yuv420p, 1280x720 [SAR 1:1 DAR 16:9], 2998 kb/s, 30 fps, 30 tbr, 30 tbn, 60 tbc
creation_time	: 2013-07-30 20:47:19
handler_name	: VideoHandler
Stream #0:1(eng): Audio: aac (mp4a / 0x6134706D), 44100 Hz, stereo, s16, 127 kb/s
creation_time	: 2013-07-30 20:47:19
handler_name	: SoundHandler
screenshots
Lexi Belle Rachel Roxxx torrent screenshot C071791EC9CE1D0A61742609889D859056334244 Lexi Belle Rachel Roxxx  torrent screenshot c071791ec9ce1d0a61742609889d859056334244 torrent Lexi Belle Rachel Roxxx
Lexi Belle, Rachel Roxxx, Capri Cavanni, Mia Malkova (2013) HD 720p images are auto generated please report any inapropriate images
 

related search cloud

 cavanni  malkova  lexi  capri  roxxx  belle  rachel  august  mysistershotfriend