Torrent Search | Torrent Meta Search | Widgets

SkinnySuperGirl 13 11 16 Gloria Living Stripping XXX 1080p NEW! HD

491.27 Mb
found 8 months ago
▲ seeders: 2 ▼ leechers:2
your vote:
real:
fake:
Direct Download
THANK YOU
download torrent
  Direct Downloadsponsored

SkinnySuperGirl 13 11 16 Gloria Living Stripping XXX 1080p NEW! HD torrent

Information about the torrent SkinnySuperGirl 13 11 16 Gloria Living Stripping XXX 1080p NEW! HD. Seeders, leechers and torrent status is updated several times per day.

If you want to download the adult torrent SkinnySuperGirl 13 11 16 Gloria Living Stripping XXX 1080p NEW! HD you will need a torrent client.

Torrent Metasearch.

No trackers with seeders or leechers have been found, this doesn't mean that the torrent SkinnySuperGirl 13 11 16 Gloria Living Stripping XXX 1080p NEW! HD is dead
Help torrentproject.com to stay alive .
Add links of torrentproject.com in your favorite forum, blog, youtube, facebook, twitter etc.
reviews
140
torrent contents

SkinnySuperGirl 13 11 16 Gloria Living Stripping XXX 1080p (NEW!) [HD] torrent

SkinnySuperGirl 13 11 16 Gloria Living Stripping XXX 1080p (NEW!) [HD]
sksg.13.11.16.gloria.living.stripping.mp4491.26 Mb torrent search
sksg.13.11.16.gloria.living.stripping.nfo6.83 Kb torrent search
Click Here - More HD XXX Porn Clips at ThePornTuber.Com.url47 bytes torrent search

Sample info:
Duration: 00:16:18.27, start: 0.000000, bitrate: 4212 kb/s
Stream #0:0	: Video: h264 (High) (avc1 / 0x31637661), yuv420p, 1920x1080, 4056 kb/s, 29.97 fps, 29.97 tbr, 30k tbn, 59.94 tbc
creation_time	: 1970-01-01 00:00:00
handler_name	: VideoHandler
Stream #0:1	: Audio: aac (mp4a / 0x6134706D), 44100 Hz, stereo, s16, 150 kb/s
creation_time	: 1970-01-01 00:00:00
handler_name	: SoundHandler
screenshots
SkinnySuperGirl 13 11 16 torrent screenshot C0DEF87241572F164B652B1F04A4748FB533E999 SkinnySuperGirl 13 11 16  torrent screenshot c0def87241572f164b652b1f04a4748fb533e999 torrent SkinnySuperGirl 13 11 16
SkinnySuperGirl 13 11 16 Gloria Living Stripping XXX 1080p (NEW!) [HD] images are auto generated please report any inapropriate images
 

related search cloud

 living  stripping  gloria  sksg  clips  theporntuber  porn  click  skinnysupergirl  here