Torrent Search | Torrent Meta Search | Widgets

Monella di provincia (1999)

986.78 Mb
found 12 months ago
▲ seeders: 2 ▼ leechers:1
your vote:
real:
fake:
Direct Download
THANK YOU
download torrent
  Direct Downloadsponsored

Monella di provincia (1999) torrent

Information about the torrent Monella di provincia (1999). Seeders, leechers and torrent status is updated several times per day.

If you want to download the video torrent Monella di provincia (1999) you will need a torrent client.

Torrent Metasearch.

tracker
seeders
leechers
↓ torrent client compatible list

↑ hide torrent client compatible list

Help torrentproject.com to stay alive .
Add links of torrentproject.com in your favorite forum, blog, youtube, facebook, twitter etc.
reviews
140
torrent contents

Monella di provincia (1999).avi torrent

Monella di provincia (1999).avi986.78 Mb torrent search

Sample info:
Duration: 01:33:38.52, start: 0.000000, bitrate: 1473 kb/s
Stream #0:0: Video: mpeg4 (DX50 / 0x30355844), yuv420p, 720x528 [SAR 1:1 DAR 15:11], 25 fps, 25 tbr, 25 tbn, 30k tbc
Stream #0:1: Audio: mp3 (U[0][0][0] / 0x0055), 48000 Hz, stereo, s16, 160 kb/s
screenshots
Monella di provincia 1999 torrent screenshot C2765457A6D839501D24B0044918A5B2EBD541A3 Monella di provincia 1999  torrent screenshot c2765457a6d839501d24b0044918a5b2ebd541a3 torrent Monella di provincia 1999
Monella di provincia (1999).avi images are auto generated please report any inapropriate images
 

related search cloud

 provincia  monella