Torrent Search | Torrent Meta Search | Widgets

Fantastic skinny teen blonde SiteRip

348.72 Mb
found 1 year ago
▲ seeders: 0 ▼ leechers:3
your vote:
real:
fake:
Direct Download
THANK YOU
download torrent
  Direct Downloadsponsored

Fantastic skinny teen blonde SiteRip torrent

Information about the torrent Fantastic skinny teen blonde SiteRip. Seeders, leechers and torrent status is updated everyday.

If you want to download the video torrent Fantastic skinny teen blonde SiteRip you will need a torrent client.

Torrent Metasearch.

tracker
seeders
leechers
↓ torrent client compatible list

↑ hide torrent client compatible list

Help torrentproject.com to stay alive .
Add links of torrentproject.com in your favorite forum, blog, youtube, facebook, twitter etc.
reviews
140
torrent contents

Fantastic skinny teen blonde - [SiteRip] torrent

Fantastic skinny teen blonde - [SiteRip]
Fantastic skinny teen blonde - [SiteRip].wmv348.72 Mb torrent search
Torrent downloaded from PublicHash.com.txt414 bytes torrent search

Sample info:
Duration: 00:27:29.41, start: 0.000000, bitrate: 1773 kb/s
Stream #0:0(eng): Audio: wmav2 (a[1][0][0] / 0x0161), 44100 Hz, stereo, s16, 128 kb/s
Stream #0:1(eng): Video: wmv3 (Main) (WMV3 / 0x33564D57), yuv420p, 530x320, 1638 kb/s, 25 tbr, 1k tbn, 1k tbc
screenshots
Fantastic skinny teen blonde torrent screenshot C393A97977C505F987FA1F9A7905E486FC1204CB Fantastic skinny teen blonde  torrent screenshot c393a97977c505f987fa1f9a7905e486fc1204cb torrent Fantastic skinny teen blonde
Fantastic skinny teen blonde - [SiteRip] images are auto generated please report any inapropriate images
 

related search cloud

 fantastic  blonde  siterip  skinny  publichash  torrent  downloaded