Torrent Search | Torrent Meta Search | Widgets

Tales Of The Unexpected Complete TV Series

       
19.33 Gb
found 3 years ago
▲ seeders: 14 ▼ leechers:16
your vote:
real:
fake:
Direct Download
THANK YOU
download torrent
  Direct Downloadsponsored

Tales Of The Unexpected Complete TV Series torrent

Information about the torrent Tales Of The Unexpected Complete TV Series. Seeders, leechers and torrent status is updated everyday.

If you want to download the video torrent Tales Of The Unexpected Complete TV Series you will need a torrent client.

Torrent Metasearch.

Torrent verified by torlock.com.

tracker
seeders
leechers
↓ torrent client compatible list

↑ hide torrent client compatible list

Help torrentproject.com to stay alive .
Add links of torrentproject.com in your favorite forum, blog, youtube, facebook, twitter etc.
reviews
140
torrent contents

Tales Of The Unexpected - Complete TV Series torrent

Tales Of The Unexpected - Complete TV Series
015 - 02x06 - fat chance.avi233.02 Mb torrent search
019 - 02x10 - depart at peace.avi232.97 Mb torrent search
018 - 02x09 - georgy porgy.avi232.93 Mb torrent search
016 - 02x07 - taste.avi232.9 Mb torrent search
024 - 02x15 - the orderly world of mr appleby.avi175.07 Mb torrent search
005 - 01x05 - the landlady.avi175.05 Mb torrent search
011 - 02x02 - skin.avi175.03 Mb torrent search
060 - 05x09 - a harmless vanity.avi174.99 Mb torrent search
082 - 06x13 - youth from vienna.avi174.99 Mb torrent search
021 - 02x12 - gemesis and catastrophe.avi174.98 Mb torrent search
089 - 07x06 - the last of the midnight gardners.avi174.98 Mb torrent search
068 - 05x17 - whos got the lady.avi174.98 Mb torrent search
079 - 06x10 - the luncheon.avi174.98 Mb torrent search
092 - 07x09 - sauce for the goose.avi174.98 Mb torrent search
061 - 05x10 - death can add.avi174.98 Mb torrent search
003 - 01x03 - william and mary.avi174.97 Mb torrent search
008 - 01x08 - a dip in the pool.avi174.96 Mb torrent search
063 - 05x12 - death in the morning.avi174.96 Mb torrent search
020 - 02x11 - the umbrella man.avi174.95 Mb torrent search
059 - 05x08 - pattern of guilt.avi174.93 Mb torrent search
103 - 09x01 - skeleton in the cupboard.avi174.92 Mb torrent search
004 - 01x04 - lamb to the slaughter.avi174.9 Mb torrent search
022 - 02x13 - mr rotibols first love.avi174.89 Mb torrent search
007 - 01x07 - edward the conqueror.avi174.89 Mb torrent search
077 - 06x08 - the vorpal blade.avi174.88 Mb torrent search
094 - 07x11 - i like it here in wilmington.avi174.88 Mb torrent search
046 - 04x12 - completely foolproof.avi174.85 Mb torrent search

Sample info:
Duration: 00:25:18.36, start: 0.000000, bitrate: 1287 kb/s
Stream #0.0: Video: mpeg4 (Advanced Simple Profile), yuv420p, 512x384 [PAR 1:1 DAR 4:3], 25 tbr, 25 tbn, 25 tbc
Stream #0.1: Audio: mp3, 48000 Hz, mono, s16, 92 kb/s
screenshots
Tales Of The Unexpected torrent screenshot C424587D75A0F77D1E20356F34D783C5098F1E0D Tales Of The Unexpected  torrent screenshot c424587d75a0f77d1e20356f34d783c5098f1e0d torrent Tales Of The Unexpected
Tales Of The Unexpected - Complete TV Series images are auto generated please report any inapropriate images
 

related search cloud

 death  skeleton  guilt  cupboard  lamb  slaughter  pattern  umbrella  william  mary