Torrent Search | Torrent Meta Search | Widgets

Indian UNSEEN 4 by pornvilla

1.35 Gb
found 12 months ago
▲ seeders: 3 ▼ leechers:5
your vote:
real:
fake:
Direct Download
THANK YOU
download torrent
  Direct Downloadsponsored

Indian UNSEEN 4 by pornvilla torrent

Information about the torrent Indian UNSEEN 4 by pornvilla. Seeders, leechers and torrent status is updated several times per day.

If you want to download the blowjobs torrent Indian UNSEEN 4 by pornvilla you will need a torrent client.

Torrent Metasearch.

tracker
seeders
leechers
↓ torrent client compatible list

↑ hide torrent client compatible list

Help torrentproject.com to stay alive .
Add links of torrentproject.com in your favorite forum, blog, youtube, facebook, twitter etc.
reviews
140
torrent contents

Indian UNSEEN 4 by pornvilla torrent

Indian UNSEEN 4 by pornvilla
desi_playboy_with_his_airhostess_gf_(new).avi344.86 Mb torrent search
tamil_colg_babe_massaging_her_boyfriend_(new).avi165.29 Mb torrent search
_my_wife_fucked_hard_by_me_(new).avi101.29 Mb torrent search
etawa_young_couple_(new).avi68.15 Mb torrent search
delhi_boy_sex_on_request_(new).avi63.49 Mb torrent search
indian_aunty_blowjob_to_neighbor_(new).avi57.86 Mb torrent search
_ghaziabad_wife_with_her_boyfriend_in_hotel_room_(new).avi57.3 Mb torrent search
desi_gf_fucked_in_hotel_(new).avi45.27 Mb torrent search
_delhi_aunty_fucked_in_bathroom_(new).avi32.02 Mb torrent search
sweet_wife_having_shower_(new).avi31.29 Mb torrent search
dharamshala_bhabhi_blowjob_(new).avi29.52 Mb torrent search
dongri_wife_manisha_bj_(new).avi28.97 Mb torrent search
feeling_bhabhi_tight_pussy_(new).avi28.9 Mb torrent search
hot_kissing_in_new_delhi_netcafe_(new).avi27.62 Mb torrent search
desi_aunty_with_boyfriend_(new).avi22.84 Mb torrent search
_cute_gujju_wife_veena_fucked_in_hotel_room_(new).avi20.7 Mb torrent search
indian_homemade_anal_(new).avi19.71 Mb torrent search
desi_girl_sandhya_changing_dress_(new).avi18.95 Mb torrent search
_raand_taking_payment_to_show_boobs_(new).avi18.59 Mb torrent search
desi_wife_quick_blowjob_(new).avi18.32 Mb torrent search
fucking_my_delicious_wife_(new).avi17.78 Mb torrent search
indian_gf_outdoor_bj_(new).avi16.34 Mb torrent search
horny_nepali_babe_rani_(new).avi13.96 Mb torrent search
_paki_babe_tania_(new).avi13.21 Mb torrent search
desi_wife_in_bed_with_hubby_(new).avi12.42 Mb torrent search
_pregnan_wife_face_massage_(new).avi11.83 Mb torrent search
tamil_mami_out_of_shower_drying_herself_(new).avi9.58 Mb torrent search

Sample info:
Duration: 00:39:02.97, start: 0.000000, bitrate: 1234 kb/s
Stream #0.0: Video: mpeg4 (Simple Profile), yuv420p, 544x408 [PAR 1:1 DAR 4:3], 29.97 fps, 29.97 tbr, 29.97 tbn, 2997 tbc
Stream #0.1: Audio: mp2, 48000 Hz, stereo, s16, 128 kb/s
screenshots
Indian UNSEEN 4 by torrent screenshot C57AB06D46DB78BADE7D45B3CF833D31F883F1E7 Indian UNSEEN 4 by  torrent screenshot c57ab06d46db78bade7d45b3cf833d31f883f1e7 torrent Indian UNSEEN 4 by
Indian UNSEEN 4 by pornvilla images are auto generated please report any inapropriate images
 

related search cloud

 wife  desi  fucked  indian  delhi  blowjob  boyfriend  hotel  aunty  babe

Torrent Anonymous Download