Torrent Search | Torrent Meta Search | Widgets

The Dark Knight Trilogy Complete Bluray 1080p TrueHD DTS HD x264 Grym @BTNET

64.23 Gb
found 7 months ago
▲ seeders: 19 ▼ leechers:61
your vote:
real:
fake:
Direct Download
THANK YOU
download torrent
  Direct Downloadsponsored

The Dark Knight Trilogy Complete Bluray 1080p TrueHD DTS HD x264 Grym @BTNET torrent

Information about the torrent The Dark Knight Trilogy Complete Bluray 1080p TrueHD DTS HD x264 Grym @BTNET. Seeders, leechers and torrent status is updated everyday.

If you want to download the hdrip torrent The Dark Knight Trilogy Complete Bluray 1080p TrueHD DTS HD x264 Grym @BTNET you will need a torrent client.

Torrent Metasearch.

tracker
seeders
leechers
↓ torrent client compatible list

↑ hide torrent client compatible list

Help torrentproject.com to stay alive .
Add links of torrentproject.com in your favorite forum, blog, youtube, facebook, twitter etc.
reviews
140
torrent contents

The.Dark.Knight.Trilogy.Complete.Bluray.1080p.TrueHD.DTS-HD.x264-Grym.(@BTNET) torrent

The.Dark.Knight.Trilogy.Complete.Bluray.1080p.TrueHD.DTS-HD.x264-Grym.(@BTNET)
 The.Dark.Knight.Rises.2012.Bluray.1080p.DTS-HD.x264-Grym.(@BTNET)
 TDKR.Extras-Grym.(@BTNET)
 TDKR.Extras4.Reflections-Grym.(@BTNET)
 TDKR.Extras4.The.End.of.a.Legend(2)-Grym.(@BTNET)
TDKR.Extras4.The.End.of.a.Legend(2)-Grym.(@BTNET).mkv155.83 Mb torrent search
TDKR.Extras4.The.End.of.a.Legend(2)-Grym.(@BTNET).sub4.93 Mb torrent search
TDKR.Extras4.The.End.of.a.Legend(2)-Grym.(@BTNET).idx27.35 Kb torrent search

The.Dark.Knight.Trilogy.Complete.Bluray.1080p.TrueHD.DTS-HD.x264-Grym.(@BTNET)
 The.Dark.Knight.Rises.2012.Bluray.1080p.DTS-HD.x264-Grym.(@BTNET)
 TDKR.Extras-Grym.(@BTNET)
 TDKR.Extras4.Reflections-Grym.(@BTNET)
 TDKR.Extras4.Shadows.and.Light.in.Large.Format(1)-Grym.(@BTNET)
TDKR.Extras4.Shadows.and.Light.in.Large.Format(1)-Grym.(@BTNET).mkv97.32 Mb torrent search
TDKR.Extras4.Shadows.and.Light.in.Large.Format(1)-Grym.(@BTNET).sub3.51 Mb torrent search
TDKR.Extras4.Shadows.and.Light.in.Large.Format(1)-Grym.(@BTNET).idx19.88 Kb torrent search

The.Dark.Knight.Trilogy.Complete.Bluray.1080p.TrueHD.DTS-HD.x264-Grym.(@BTNET)
 The.Dark.Knight.Rises.2012.Bluray.1080p.DTS-HD.x264-Grym.(@BTNET)
 TDKR.Extras-Grym.(@BTNET)
 TDKR.Extras1.The.Batmobile-Grym.(@BTNET)
TDKR.Extras1.The.Batmobile-Grym.(@BTNET).MKV1.52 Gb torrent search
The.Dark.Knight.Trilogy.Complete.Bluray.1080p.TrueHD.DTS-HD.x264-Grym.(@BTNET)
 The.Dark.Knight.Rises.2012.Bluray.1080p.DTS-HD.x264-Grym.(@BTNET)
 TDKR.Extras-Grym.(@BTNET)
 TDKR.Extras2.Production-Grym.(@BTNET)
 TDKR.Extras2.The.Pro

Sample info:
Duration: 02:44:33.86, start: 0.000000, bitrate: 18555 kb/s
Stream #0:0(eng): Video: h264 (High), yuv420p, 1920x1080, SAR 1:1 DAR 16:9, 23.98 fps, 23.98 tbr, 1k tbn, 47.95 tbc (default)
Stream #0:1(eng): Audio: dts (DTS-HD MA), 48000 Hz, 5.1(side), s16, 1536 kb/s (default)
Stream #0:2(jpn): Subtitle: hdmv_pgs_subtitle
Stream #0:3(eng): Subtitle: hdmv_pgs_subtitle
Stream #0:4(jpn): Subtitle: hdmv_pgs_subtitle
Stream #0:5(fre): Subtitle: hdmv_pgs_subtitle
Stream #0:6(ger): Subtitle: hdmv_pgs_subtitle
Stream #0:7(ita): Subtitle: hdmv_pgs_subtitle
Stream #0:8(spa): Subtitle: hdmv_pgs_subtitle
Stream #0:9(dut): Subtitle: hdmv_pgs_subtitle
Stream #0:10(chi): Subtitle: hdmv_pgs_subtitle
Stream #0:11(kor): Subtitle: hdmv_pgs_subtitle
Stream #0:12(ind): Subtitle: hdmv_pgs_subtitle
Stream #0:13(chi): Subtitle: hdmv_pgs_subtitle
Stream #0:14(dan): Subtitle: hdmv_pgs_subtitle
Stream #0:15(fin): Subtitle: hdmv_pgs_subtitle
Stream #0:16(ice): Subtitle: hdmv_pgs_subtitle
Stream #0:17(nor): Subtitle: hdmv_pgs_subtitle
Stream #0:18(swe): Subtitle: hdmv_pgs_subtitle
Stream #0:19(tha): Subtitle: hdmv_pgs_subtitle
Stream #0:20(fre): Subtitle: hdmv_pgs_subtitle
Stream #0:21(ita): Subtitle: hdmv_pgs_subtitle
Stream #0:22(spa): Subtitle: hdmv_pgs_subtitle
screenshots
The Dark Knight Trilogy torrent screenshot C798357393A0BCB0A64F564072FD224F942125B7 The Dark Knight Trilogy  torrent screenshot c798357393a0bcb0a64f564072fd224f942125b7 torrent The Dark Knight Trilogy
The.Dark.Knight.Trilogy.Complete.Bluray.1080p.TrueHD.DTS-HD.x264-Grym.(@BTNET) images are auto generated please report any inapropriate images
 

related search cloud

 grym  btnet  extras  tdkr  bluray  dark  knight  shadows  light  large

Torrent Anonymous Download