Torrent Search | Torrent Meta Search | Widgets

Big Anal Asses

2.19 Gb
found 10 months ago
▲ seeders: 14 ▼ leechers:5
your vote:
real:
fake:
Direct Download
THANK YOU
download torrent
  Direct Downloadsponsored

Big Anal Asses torrent

Information about the torrent Big Anal Asses. Seeders, leechers and torrent status is updated everyday.

If you want to download the anal torrent Big Anal Asses you will need a torrent client.

Torrent Metasearch.

tracker
seeders
leechers
↓ torrent client compatible list

↑ hide torrent client compatible list

Help torrentproject.com to stay alive .
Add links of torrentproject.com in your favorite forum, blog, youtube, facebook, twitter etc.
reviews
140
torrent contents

Big Anal Asses torrent

Big Anal Asses
0 Trailer.mp455.32 Mb torrent search
1 Jada Stevens.mp4497.42 Mb torrent search
2 Christy Mack.mp4536.48 Mb torrent search
3 A.J. Applegate.mp4549.76 Mb torrent search
4 Jayden Jaymes.mp4607.4 Mb torrent search
5 front.jpg86.55 Kb torrent search
6 back.jpg115.99 Kb torrent search

Sample info:
Duration: 00:37:55.68, start: 0.000000, bitrate: 2238 kb/s
Stream #0:0(eng): Video: h264 (Main) (avc1 / 0x31637661), yuv420p, 848x480 [SAR 1:1 DAR 53:30], 2046 kb/s, 23.98 fps, 23.98 tbr, 24k tbn, 47.95 tbc
creation_time	: 2013-10-23 14:45:24
handler_name	: Mainconcept MP4 Video Media Handler
Stream #0:1(eng): Audio: aac (mp4a / 0x6134706D), 44100 Hz, stereo, s16, 189 kb/s
creation_time	: 2013-10-23 14:45:24
handler_name	: Mainconcept MP4 Sound Media Handler
screenshots
Big Anal Asses torrent screenshot CCC6FFF55799AC869F32D87EBB58E72CF2225C40 Big Anal Asses torrent screenshot ccc6fff55799ac869f32d87ebb58e72cf2225c40 torrent Big Anal Asses
Big Anal Asses images are auto generated please report any inapropriate images
 

related search cloud

 jayden  jaymes  front  back  applegate  mack  trailer  jada  stevens  christy