Torrent Search | Torrent Meta Search | Widgets

IENE 296

1.05 Gb
found 12 months ago
▲ seeders: 12 ▼ leechers:1
your vote:
real:
fake:
Direct Download
THANK YOU
download torrent
  Direct Downloadsponsored

IENE 296 torrent

Information about the torrent IENE 296. Seeders, leechers and torrent status is updated several times per day.

If you want to download the video torrent IENE 296 you will need a torrent client.

Torrent Metasearch.

tracker
seeders
leechers
↓ torrent client compatible list

↑ hide torrent client compatible list

Help torrentproject.com to stay alive .
Add links of torrentproject.com in your favorite forum, blog, youtube, facebook, twitter etc.
reviews
140
torrent contents

IENE-296.mp4 torrent

IENE-296.mp41.05 Gb torrent search

Sample info:
Duration: 02:02:49.22, start: 0.000000, bitrate: 1229 kb/s
Stream #0:0(eng): Audio: aac (mp4a / 0x6134706D), 48000 Hz, stereo, s16, 45 kb/s
creation_time	: 2013-08-09 19:48:45
handler_name	: Mainconcept MP4 Sound Media Handler
Stream #0:1(eng): Video: h264 (Main) (avc1 / 0x31637661), yuv420p, 640x360 [SAR 1:1 DAR 16:9], 1179 kb/s, 29.97 fps, 29.97 tbr, 30k tbn, 59.94 tbc
creation_time	: 2013-08-09 19:48:45
handler_name	: Mainconcept MP4 Video Media Handler
screenshots
IENE 296 torrent screenshot CDDDA6CBE00CEE8B69AC4C17C8F7E89AAEBC771D IENE 296 torrent screenshot cddda6cbe00cee8b69ac4c17c8f7e89aaebc771d torrent IENE 296
IENE-296.mp4 images are auto generated please report any inapropriate images
 

related search cloud

 iene