Torrent Search | Torrent Meta Search | Widgets

Amerikanskiy pirog vse v sbore (2012) D CAMRip

       
1.36 Gb
found 2 years ago
▲ seeders: 10 ▼ leechers:0
your vote:
real:
fake:
Direct Download
THANK YOU
download torrent
  Direct Downloadsponsored

Amerikanskiy pirog vse v sbore (2012) D CAMRip torrent

Information about the torrent Amerikanskiy pirog vse v sbore (2012) D CAMRip. Seeders, leechers and torrent status is updated everyday.

If you want to download the video torrent Amerikanskiy pirog vse v sbore (2012) D CAMRip you will need a torrent client.

Torrent Metasearch.

Torrent verified by kat.ph.

tracker
seeders
leechers
↓ torrent client compatible list

↑ hide torrent client compatible list

Help torrentproject.com to stay alive .
Add links of torrentproject.com in your favorite forum, blog, youtube, facebook, twitter etc.
reviews
140
torrent contents

Amerikanskiy.pirog.vse.v.sbore.2012.D.CAMRip.avi torrent

Amerikanskiy.pirog.vse.v.sbore.2012.D.CAMRip.avi1.36 Gb torrent search

Sample info:
Duration: 01:30:16.04, start: 0.000000, bitrate: 2163 kb/s
Stream #0.0: Video: mpeg4, yuv420p, 720x336 [PAR 1:1 DAR 15:7], 25 tbr, 25 tbn, 25 tbc
Stream #0.1: Audio: ac3, 48000 Hz, stereo, s16, 128 kb/s
screenshots
Amerikanskiy pirog vse v torrent screenshot CEC42E63B700D1E16D2E93D53EF01846CE9A8081 Amerikanskiy pirog vse v  torrent screenshot cec42e63b700d1e16d2e93d53ef01846ce9a8081 torrent Amerikanskiy pirog vse v
Amerikanskiy.pirog.vse.v.sbore.2012.D.CAMRip.avi images are auto generated please report any inapropriate images
 

related search cloud

 camrip  sbore  pirog  amerikanskiy

Torrent Anonymous Download