Torrent Search | Torrent Meta Search | Widgets

Masha i Medved 2009 2012 BD Remux

41.91 Gb
found 2 years ago
▲ seeders: 5 ▼ leechers:1
your vote:
real:
fake:
Direct Download
THANK YOU
download torrent
  Direct Downloadsponsored

Masha i Medved 2009 2012 BD Remux torrent

Information about the torrent Masha i Medved 2009 2012 BD Remux. A torrent file stores metadata that can be used from a BitTorrent client.

If you want to download the video torrent Masha i Medved 2009 2012 BD Remux you will need a torrent client.

Torrent Metasearch.

tracker
seeders
leechers
↓ torrent client compatible list

↑ hide torrent client compatible list

Help torrentproject.com to stay alive .
Add links of torrentproject.com in your favorite forum, blog, youtube, facebook, twitter etc.
reviews
140
torrent contents

Masha.i.Medved.2009-2012.BD-Remux torrent

Masha.i.Medved.2009-2012.BD-Remux
03.Masha i medved'-Raz, dva, tri! Elochka, gori!.mkv1.93 Gb torrent search
06.Masha i medved'-Sledy nevidannyh zverej.mkv1.89 Gb torrent search
14.Masha i medved'-Lyzhnju.mkv1.88 Gb torrent search
10.Masha i medved'-Prazdnik na l'du.mkv1.87 Gb torrent search
15.Masha i medved'-Bud'te zdorovy!.mkv1.87 Gb torrent search
08.Masha i medved'-Pozvoni mne, pozvoni.mkv1.85 Gb torrent search
16.Masha i medved'-Masha + kasha.mkv1.85 Gb torrent search
11.Masha i medved'-Pervyi' raz v pervyi' klass.mkv1.81 Gb torrent search
05.Masha i medved'-Lovis', rybka!.mkv1.79 Gb torrent search
07.Masha i medved'-S volkami zhit'.mkv1.79 Gb torrent search
01.Masha i medved'-Pervaja vstrecha.mkv1.76 Gb torrent search
12.Masha i medved'-Granica na zamke.mkv1.75 Gb torrent search
09.Masha i medved'-Den' varen'ja.mkv1.75 Gb torrent search
04.Masha i medved'-Vesna prishla!.mkv1.72 Gb torrent search
13.Masha i medved'-Kto ne sprjatalsja ja ne vinovat.mkv1.71 Gb torrent search
02.Masha i medved'-Do vesny ne budit'!.mkv1.58 Gb torrent search
25.Masha.I.Medved'-Fokus-pokus.mkv1.48 Gb torrent search
20.Masha i medved'-Usatyj Polosatyj.mkv1.48 Gb torrent search
23.Masha.I.Medved'-Podkidysh.mkv1.47 Gb torrent search
19.Masha i medved'-Repeticija orkestra.mkv1.47 Gb torrent search

Sample info:
Duration: 00:08:06.45, start: 0.000000, bitrate: 1984 kb/s
Stream #0.0(rus): Video: h264 (High), yuv420p, 1920x1080 [PAR 1:1 DAR 16:9], 24 fps, 24 tbr, 1k tbn, 48 tbc (default)
title	: ????? 03 [???, ???, ???! ??????, ????!] Remux
Stream #0.1(rus): Audio: pcm_s24le, 48000 Hz, 6 channels, s32, 6912 kb/s (default)
title	: LPCM, 6 ch,	6912.00 kbps
Stream #0.2(rus): Audio: dca (DTS-HD MA), 48000 Hz, 5.1, s16, 1536 kb/s
title	: DTS-HD MA, 6 ch, 1536.00 kbps
Stream #0.3(rus): Audio: ac3, 48000 Hz, 5.1, s16, 448 kb/s
title	: AC3, 6 ch, 448.00 kbps
screenshots
Masha i Medved 2009 torrent screenshot D100ACEDBDFD3579CDBBA39A377C5C9272F3E7EB Masha i Medved 2009  torrent screenshot d100acedbdfd3579cdbba39a377c5c9272f3e7eb torrent Masha i Medved 2009
Masha.i.Medved.2009-2012.BD-Remux images are auto generated please report any inapropriate images
 

related search cloud

 masha  medved  pozvoni  pervyi  vesny  vinovat  vesna  varen  prishla  sprjatalsja