Torrent Search | Torrent Meta Search | Widgets

Pulp Fiction (1994)

       
751.59 Mb
found 2 years ago
▲ seeders: 19 ▼ leechers:8
your vote:
real:
fake:
Direct Download
THANK YOU
download torrent
  Direct Downloadsponsored

Pulp Fiction (1994) torrent

Information about the torrent Pulp Fiction (1994). Seeders, leechers and torrent status is updated several times per day.

If you want to download the hdrip torrent Pulp Fiction (1994) you will need a torrent client.

Torrent Metasearch.

Torrent verified by kat.ph.

tracker
seeders
leechers
↓ torrent client compatible list

↑ hide torrent client compatible list

Help torrentproject.com to stay alive .
Add links of torrentproject.com in your favorite forum, blog, youtube, facebook, twitter etc.
reviews
140
torrent contents

Pulp Fiction (1994) torrent

Pulp Fiction (1994)
 Other
Torrent Downloaded From ExtraTorrent.com.txt353 bytes torrent search
AhaShare.com.txt59 bytes torrent search
Torrent downloaded from Demonoid.com - Copy.txt47 bytes torrent search

Pulp Fiction (1994)
Pulp.Fiction.1994.720p.BrRip.x264.YIFY.mp4751.29 Mb torrent search
Pulp.Fiction.1994.720p.BrRip.x264.YIFY.srt178.88 Kb torrent search
WWW.YIFY-TORRENTS.COM.jpg127.61 Kb torrent search

Sample info:
Duration: 02:34:57.54, start: 0.000000, bitrate: 677 kb/s
Stream #0.0	: Video: h264, yuv420p, 1280x544 [PAR 1:1 DAR 40:17], 613 kb/s, 23.98 fps, 23.98 tbr, 96k tbn, 47.95 tbc
creation_time	: 2012-03-23 01:22:00
Stream #0.1	: Audio: aac, 22050 Hz, stereo, s16, 63 kb/s
creation_time	: 2012-03-23 01:22:14
screenshots
Pulp Fiction 1994 torrent screenshot D55F1E840F1BD6576EAD67A4D04E5D6EA294414B Pulp Fiction 1994  torrent screenshot d55f1e840f1bd6576ead67a4d04e5d6ea294414b torrent Pulp Fiction 1994
Pulp Fiction (1994) images are auto generated please report any inapropriate images
 

related search cloud

 pulp  fiction  yify  brrip  torrent  downloaded  torrents  copy  extratorrent  other