Torrent Search | Torrent Meta Search | Widgets

Lo Hobbit La Desolazione Di Smaug (2013) iTALiAN MD WEBRip XviD REV

1.37 Gb
found 8 months ago
▲ seeders: 47 ▼ leechers:3
your vote:
real:
fake:
Direct Download
THANK YOU
download torrent
  Direct Downloadsponsored

Lo Hobbit La Desolazione Di Smaug (2013) iTALiAN MD WEBRip XviD REV torrent

Information about the torrent Lo Hobbit La Desolazione Di Smaug (2013) iTALiAN MD WEBRip XviD REV. Seeders, leechers and torrent status is updated several times per day.

If you want to download the video torrent Lo Hobbit La Desolazione Di Smaug (2013) iTALiAN MD WEBRip XviD REV you will need a torrent client.

Torrent Metasearch.

tracker
seeders
leechers
↓ torrent client compatible list

↑ hide torrent client compatible list

Help torrentproject.com to stay alive .
Add links of torrentproject.com in your favorite forum, blog, youtube, facebook, twitter etc.
reviews
140
torrent contents

Lo.Hobbit.La.Desolazione.Di.Smaug.2013.iTALiAN.MD.WEBRip.XviD-REV torrent

Lo.Hobbit.La.Desolazione.Di.Smaug.2013.iTALiAN.MD.WEBRip.XviD-REV
Lo.Hobbit.La.Desolazione.Di.Smaug.2013.iTALiAN.MD.WEBRip.XviD-REV.avi1.37 Gb torrent search
LEGGIMI.txt106 bytes torrent search

Sample info:
Duration: 02:42:01.05, start: 0.000000, bitrate: 1214 kb/s
Stream #0:0: Video: mpeg4 (Advanced Simple Profile) (XVID / 0x44495658), yuv420p, 640x272 [SAR 1:1 DAR 40:17], 29.97 tbr, 29.97 tbn, 29.98 tbc
Stream #0:1: Audio: mp3 (U[0][0][0] / 0x0055), 48000 Hz, stereo, s16, 128 kb/s
screenshots
Lo Hobbit La Desolazione torrent screenshot D9553000A2AD9248F4075CDF40BE804E834DC7D2 Lo Hobbit La Desolazione  torrent screenshot d9553000a2ad9248f4075cdf40be804e834dc7d2 torrent Lo Hobbit La Desolazione
Lo.Hobbit.La.Desolazione.Di.Smaug.2013.iTALiAN.MD.WEBRip.XviD-REV images are auto generated please report any inapropriate images
 

related search cloud

 webrip  xvid  hobbit  italian  smaug  desolazione  leggimi