Torrent Search | Torrent Meta Search | Widgets

Hot Bengali Indian Couple Home Made Sex+Sex with Boy Friend in a Single room Scandal

127.28 Mb
found 8 months ago
▲ seeders: 4 ▼ leechers:1
your vote:
real:
fake:
Direct Download
THANK YOU
download torrent
  Direct Downloadsponsored

Hot Bengali Indian Couple Home Made Sex+Sex with Boy Friend in a Single room Scandal torrent

Information about the torrent Hot Bengali Indian Couple Home Made Sex+Sex with Boy Friend in a Single room Scandal. Seeders, leechers and torrent status is updated several times per day.

If you want to download the video torrent Hot Bengali Indian Couple Home Made Sex+Sex with Boy Friend in a Single room Scandal you will need a torrent client.

Torrent Metasearch.

tracker
seeders
leechers
↓ torrent client compatible list

↑ hide torrent client compatible list

Help torrentproject.com to stay alive .
Add links of torrentproject.com in your favorite forum, blog, youtube, facebook, twitter etc.
reviews
140
torrent contents

[Hot Bengali Indian Couple Home Made Sex+Sex with Boy Friend in a Single room(Scandal)] torrent

[Hot Bengali Indian Couple Home Made Sex+Sex with Boy Friend in a Single room(Scandal)]
[Hot Bengali Indian Couple Home Made Sex+Sex with Boy Friend in a Single room(Scandal)].avi127.28 Mb torrent search

Sample info:
Duration: 00:28:46.39, start: 0.000000, bitrate: 618 kb/s
Stream #0:0: Video: h264 (Constrained Baseline) (H264 / 0x34363248), yuvj420p, 320x240 [SAR 1:1 DAR 4:3], 29.97 fps, 29.97 tbr, 29.97 tbn, 59.94 tbc
Stream #0:1: Audio: mp3 (U[0][0][0] / 0x0055), 44100 Hz, stereo, s16, 128 kb/s
screenshots
Hot Bengali Indian Couple torrent screenshot DAFF4FD5E45475F733229E8F8B6AAE0BD63FA4F8 Hot Bengali Indian Couple  torrent screenshot daff4fd5e45475f733229e8f8b6aae0bd63fa4f8 torrent Hot Bengali Indian Couple
[Hot Bengali Indian Couple Home Made Sex+Sex with Boy Friend in a Single room(Scandal)] images are auto generated please report any inapropriate images
 

related search cloud

 single  room  scandal  friend  made  indian  couple  home  bengali

Torrent Anonymous Download