Torrent Search | Torrent Meta Search | Widgets

Garri Potter I Kubok Ognja (2005) RUS BDRip XviD AC3 HQ ViDEO

2.19 Gb
found 3 years ago
▲ seeders: 165 ▼ leechers:8
your vote:
real:
fake:
Direct Download
THANK YOU
download torrent
  Direct Downloadsponsored

Garri Potter I Kubok Ognja (2005) RUS BDRip XviD AC3 HQ ViDEO torrent

Information about the torrent Garri Potter I Kubok Ognja (2005) RUS BDRip XviD AC3 HQ ViDEO. A torrent file stores metadata that can be used from a BitTorrent client.

If you want to download the video torrent Garri Potter I Kubok Ognja (2005) RUS BDRip XviD AC3 HQ ViDEO you will need a torrent client.

Torrent Metasearch.

tracker
seeders
leechers
↓ torrent client compatible list

↑ hide torrent client compatible list

Help torrentproject.com to stay alive .
Add links of torrentproject.com in your favorite forum, blog, youtube, facebook, twitter etc.
reviews
140
torrent contents

Garri.Potter.I.Kubok.Ognja.2005.RUS.BDRip.XviD.AC3.-HQ-ViDEO.avi torrent

Garri.Potter.I.Kubok.Ognja.2005.RUS.BDRip.XviD.AC3.-HQ-ViDEO.avi2.19 Gb torrent search

Sample info:
Duration: 02:37:05.53, start: 0.000000, bitrate: 1991 kb/s
Stream #0.0: Video: mpeg4, yuv420p, 720x304 [PAR 1:1 DAR 45:19], 23.98 tb(r)
Stream #0.1: Audio: ac3, 48000 Hz, 5:1, 384 kb/s
screenshots
Garri Potter I Kubok torrent screenshot DC02CA1670E4E88589759BD6D600DAA0B0A3970F Garri Potter I Kubok  torrent screenshot dc02ca1670e4e88589759bd6d600daa0b0a3970f torrent Garri Potter I Kubok
Garri.Potter.I.Kubok.Ognja.2005.RUS.BDRip.XviD.AC3.-HQ-ViDEO.avi images are auto generated please report any inapropriate images
 

related search cloud

 xvid  video  bdrip  ognja  potter  kubok  garri

Torrent Anonymous Download