Torrent Search | Torrent Meta Search | Widgets

Fuck The Librarians

1.65 Gb
found 1 year ago
▲ seeders: 2 ▼ leechers:1
your vote:
real:
fake:
Direct Download
THANK YOU
download torrent
  Direct Downloadsponsored

Fuck The Librarians torrent

Information about the torrent Fuck The Librarians. Seeders, leechers and torrent status is updated several times per day.

If you want to download the adult torrent Fuck The Librarians you will need a torrent client.

Torrent Metasearch.

tracker
seeders
leechers
↓ torrent client compatible list

↑ hide torrent client compatible list

Help torrentproject.com to stay alive .
Add links of torrentproject.com in your favorite forum, blog, youtube, facebook, twitter etc.
reviews
140
torrent contents

Fuck The Librarians torrent

Fuck The Librarians
sc3_stacey.m4v404.76 Mb torrent search
sc2_cindylousie.m4v392.56 Mb torrent search
sc4_lou.m4v327.03 Mb torrent search
sc5_anna.m4v315.77 Mb torrent search
sc1_paige.m4v254.08 Mb torrent search

Sample info:
Duration: 00:33:05.38, start: 0.000000, bitrate: 1710 kb/s
Stream #0.0	: Video: h264 (High), yuv420p, 720x480 [PAR 32:27 DAR 16:9], 1577 kb/s, 23.98 fps, 29.97 tbr, 30k tbn, 59.94 tbc
Stream #0.1	: Audio: aac, 48000 Hz, stereo, s16, 127 kb/s
screenshots
Fuck The Librarians torrent screenshot DC57BE2D1520BF853263B9082836363D53CBC4D0 Fuck The Librarians torrent screenshot dc57be2d1520bf853263b9082836363d53cbc4d0 torrent Fuck The Librarians
Fuck The Librarians images are auto generated please report any inapropriate images
 

related search cloud

 anna  paige  cindylousie  stacey  librarians  fuck