Torrent Search | Torrent Meta Search | Widgets

Skinny Teen Girl Anally Fucked and Gangbanged

261 Mb
found 1 year ago
▲ seeders: 4 ▼ leechers:1
your vote:
real:
fake:
Direct Download
THANK YOU
download torrent
  Direct Downloadsponsored

Skinny Teen Girl Anally Fucked and Gangbanged torrent

Information about the torrent Skinny Teen Girl Anally Fucked and Gangbanged. Seeders, leechers and torrent status is updated several times per day.

If you want to download the video torrent Skinny Teen Girl Anally Fucked and Gangbanged you will need a torrent client.

Torrent Metasearch.

tracker
seeders
leechers
↓ torrent client compatible list

↑ hide torrent client compatible list

Help torrentproject.com to stay alive .
Add links of torrentproject.com in your favorite forum, blog, youtube, facebook, twitter etc.
reviews
140
torrent contents

Skinny Teen Girl Anally Fucked and Gangbanged.mp4 torrent

Skinny Teen Girl Anally Fucked and Gangbanged.mp4261 Mb torrent search

Sample info:
Duration: 00:30:00.33, start: 0.000000, bitrate: 1216 kb/s
Stream #0.0(eng): Video: h264 (High), yuv420p, 640x480, 1135 kb/s, 29.97 fps, 29.97 tbr, 22050 tbn, 59.94 tbc
creation_time	: 2010-11-17 22:19:56
Stream #0.1	: Audio: aac, 22050 Hz, stereo, s16, 75 kb/s
creation_time	: 2010-11-17 22:19:56
screenshots
Skinny Teen Girl Anally torrent screenshot DDF61757D7A08AC94F4879846311AB39DB8E76D9 Skinny Teen Girl Anally  torrent screenshot ddf61757d7a08ac94f4879846311ab39db8e76d9 torrent Skinny Teen Girl Anally
Skinny Teen Girl Anally Fucked and Gangbanged.mp4 images are auto generated please report any inapropriate images
 

related search cloud

 gangbanged  fucked  anally  girl  skinny