Torrent Search | Torrent Meta Search | Widgets

SHEMALE ANNE PRODUCES A LARGE AMOUNT OF CUM ON THE TABLE SILVERDUST

423.58 Mb
found 7 months ago
▲ seeders: 1 ▼ leechers:1
your vote:
real:
fake:
Direct Download
THANK YOU
download torrent
  Direct Downloadsponsored

SHEMALE ANNE PRODUCES A LARGE AMOUNT OF CUM ON THE TABLE SILVERDUST torrent

Information about the torrent SHEMALE ANNE PRODUCES A LARGE AMOUNT OF CUM ON THE TABLE SILVERDUST. Seeders, leechers and torrent status is updated everyday.

If you want to download the shemale torrent SHEMALE ANNE PRODUCES A LARGE AMOUNT OF CUM ON THE TABLE SILVERDUST you will need a torrent client.

Torrent Metasearch.

tracker
seeders
leechers
↓ torrent client compatible list

↑ hide torrent client compatible list

Help torrentproject.com to stay alive .
Add links of torrentproject.com in your favorite forum, blog, youtube, facebook, twitter etc.
reviews
140
torrent contents

SHEMALE ANNE PRODUCES A LARGE AMOUNT OF CUM ON THE TABLE[SILVERDUST] torrent

SHEMALE ANNE PRODUCES A LARGE AMOUNT OF CUM ON THE TABLE[SILVERDUST]
silver-top.jpg109 Kb torrent search
silver-top.flv423.47 Mb torrent search

Sample info:
Duration: 00:11:39.72, start: 0.000000, bitrate: 5076 kb/s
Stream #0:0: Video: flv1, yuv420p, 1180x664, 5058 kb/s, 30 tbr, 1k tbn, 1k tbc
Stream #0:1: Audio: mp3, 44100 Hz, stereo, s16, 131 kb/s
screenshots
SHEMALE ANNE PRODUCES A torrent screenshot DF24CB012FB3B70151E90C1165033859D410E75C SHEMALE ANNE PRODUCES A  torrent screenshot df24cb012fb3b70151e90c1165033859d410e75c torrent SHEMALE ANNE PRODUCES A
SHEMALE ANNE PRODUCES A LARGE AMOUNT OF CUM ON THE TABLE[SILVERDUST] images are auto generated please report any inapropriate images
 

related search cloud

 silver  table  silverdust  amount  large  anne  produces  shemale